Empire of Assassins (2011) DvdRip Xvid {1337x}-X

seeders: 9
leechers: 0
Added on Jul 7, 2011 in Movies
Torrent verified. Downloaded 10 times.

Cast: Miu Tse, Li Yuan and others
Available in versions: DVDDVDRipVCD
Empire of Assassins (2011) DvdRip Xvid {1337x}-X (Size: 701.1 MB)
  Empire of Assassins (2011) DvdRip [Xvid] {1337x}-X.avi 701.1 MB

Description

One man is out for revenge after a life-altering event destroys his family. After years of preparation he seeks out his justice, while unaware of their relation, on his brother. As these two brothers seek to destroy each other certain memories are triggered and although many trusted allies will be dishonest and misleading neither one will stop until they know the truth.

http://leetleech.org/images/15663982191022844769.jpg

Video
ID : 0
Format : MPEG-4 Visual
Format profile : Advanced Simple@L5
Format settings, BVOP : Yes
Format settings, QPel : No
Format settings, GMC : No warppoints
Format settings, Matrix : Default (H.263)
Muxing mode : Packed bitstream
Codec ID : XVID
Codec ID/Hint : XviD
Duration : 1h 32mn
Bit rate : 945 Kbps
Width : 656 pixels
Height : 368 pixels
Display aspect ratio : 16:9
Frame rate : 23.976 fps
Color space : YUV
Chroma subsampling : 4:2:0
Bit depth : 8 bits
Scan type : Progressive
Bits/(Pixel*Frame) : 0.163
Stream size : 624 MiB (89%)
Writing library : XviD 57

Audio
ID : 1
Format : MPEG Audio
Format version : Version 1
Format profile : Layer 3
Mode : Joint stereo
Mode extension : MS Stereo
Codec ID : 55
Codec ID/Hint : MP3
Duration : 1h 32mn
Bit rate mode : Variable
Bit rate : 104 Kbps
Nominal bit rate : 112 Kbps
Channel(s) : 2 channels
Sampling rate : 48.0 KHz
Stream size : 68.5 MiB (10%)
Alignment : Aligned on interleaves
Interleave, duration : 24 ms (0.58 video frame)
Interleave, preload duration : 177 ms
Writing library : LAME3.97
Encoding settings : -m j -V 4 -q 2 -lowpass 16 --abr 112

IMDB
http://www.imdb.com/title/tt1891794/

Related Torrents

torrent name size files age seed leech

Sharing Widget


Download torrent
701.1 MB
seeders:9
leechers:0
Empire of Assassins (2011) DvdRip Xvid {1337x}-X

Trackers

tracker name Status checked seeders leechers downloads
udp://tracker.openbittorrent.com:80/announce
outdated 07 Oct 2013 - - -
udp://tracker.publicbt.com:80/announce
outdated 07 Oct 2013 - - -
http://exodus.1337x.org/announce
outdated 13 May 2013 - - -
http://tracker.openbittorrent.com/announce
outdated 13 May 2013 - - -
http://tracker.publicbt.com/announce
deleted 13 May 2013 - - -
ĀµTorrent compatible trackers list

Locations

name
ThePirateBay
1337x
ExtraTorrent
Torrent hash: cddea94b7eb4403c01db7a66ffc6bd886d755419

Top Comments

2
anonymous • 07 Jul 2011, 23:32
audio: 9video: 9
A9/V9 Great upload, nicely done. Regretfully the movie is shite.

All Comments

audio
8/10
video
8/10
please, leave only comments related to that torrent
or sign-in
0
black_nighter11302 • 13 September 2012, 01:14
torrent downloaded
Show comment
audio: 9video: 9
thanks
0
Timgisit1089 • 10 June 2012, 17:31
torrent downloaded
Show comment
audio: 9video: 9
0
cocody303 • 10 May 2012, 06:39
torrent downloaded
Show comment
audio: 8video: 8
0
becky_broderick47 • 02 May 2012, 22:26
torrent downloaded
Show comment
Didn't work.
0
prprettypls2058 • 07 April 2012, 01:28 Show comment
audio: 9video: 9
Good copy, thanks!
0
TheExorcist735 • 22 October 2011, 12:51
torrent downloaded
Show comment
audio: 8video: 8
0
tarmacsoldier121 • 11 September 2011, 03:42
torrent downloaded
Show comment
crap so boring
0
Vernick214607 • 21 August 2011, 14:54
torrent downloaded
Show comment
audio: 10video: 10
thanks anyway
0
3Will781 • 09 August 2011, 18:18
torrent downloaded
Show comment
audio: 9video: 9
good rip and fast d/load...cheers to loader and seedsers
0
Dsher1286 • 29 July 2011, 18:42
torrent downloaded
Show comment
audio: 10video: 10
Great Copy
Show More

User Opinions

q8djent4998, TeGiiGii4473, sonyday525, adhar425, Dark Messenger291, toblakai131, Dantheman197139125, Skip13125, snrengs98, royricherds43 ... And 194 more
MR_TEO2064, zubejda889, lockley762, djlucky2646, abhishek.ahlawat328, Kartiz172, RuSsIaN_gRiMrEePeR154, jonhy1352, becky_broderick47, Jim_Beanz10141 ... And 13 more
Report a bug