Eid-Tere-Naam-Umer Sharif-Stage Show-720p-Ac3-5.1Channel-By-Pakistani Bacha (TLrG)

seeders: 0
leechers: 5
Added on Mar 25, 2011 in Movies
Torrent verified. Downloaded 10 times.

Eid-Tere-Naam-Umer Sharif-Stage Show-720p-Ac3-5.1Channel-By-Pakistani Bacha (TLrG) (Size: 1.43 GB)
  DVD FRONT COVER
  SAMPLES
  SCREENSHOTS
  Eid-Tere-Naam-Umer Sharif-Stage Show-720p-Ac3-5.1Channel-By-Pakistani Bacha (TLrG).mkv 1.4 GB
  Eid-Tere-Naam-Umer Sharif-Stage Show-720p-Ac3-5.1Channel-By-Pakistani Bacha (TLrG).NFO 4.94 KB

Description



====================================================================================================================
Eid-Tere-Naam-Umer Sharif-Stage Show-720p-Ac3-5.1Channel-By-Pakistani Bacha (TLrG)
====================================================================================================================

Code:GeneralUnique ID : 249096371290224278721848293274925343156 (0xBB66374F17A822B1B2543CCDD7AB21B4)Complete name : Eid-Tere-Naam-Umer Sharif-Stage Show-720p-Ac3-5.1Channel-By-Pakistani Bacha (TLrG).mkvSource : DVD-9 @ TEAM TLrGFormat : MatroskaFile size : 1.40 GiBDuration : 2h 4mnOverall bit rate : 1 609 KbpsEncoded date : UTC 2011-03-24 21:40:54Writing application : mkvmerge v4.6.0 (\'Still Crazy After All These Years\') built on Mar 10 2011 02:50:32Writing library : libebml v1.2.0 + libmatroska v1.1.0VideoID : 1Format : MPEG-4 VisualFormat profile : Advanced Simple@L5Format settings, BVOP : YesFormat settings, QPel : NoFormat settings, GMC : No warppointsFormat settings, Matrix : Default (H.263)Codec ID : XVIDCodec ID/Hint : XviDDuration : 2h 4mnBit rate : 1 321 KbpsWidth : 720 pixelsHeight : 536 pixelsDisplay aspect ratio : 2.35:1Original display aspect ratio : 4:3Frame rate : 29.970 fpsColor space : YUVChroma subsampling : 4:2:0Bit depth : 8 bitsScan type : ProgressiveCompression mode : LossyBits/(Pixel*Frame) : 0.114Stream size : 1.15 GiB (82%)Writing library : XviD 1.0.1 (UTC 2004-06-05)AudioID : 2Format : AC-3Format/Info : Audio Coding 3Mode extension : CM (complete main)Muxing mode : Header strippingCodec ID : A_AC3Duration : 2h 4mnBit rate mode : ConstantBit rate : 256 KbpsChannel(s) : 6 channelsChannel positions : Front: L C R, Side: L R, LFESampling rate : 48.0 KHzBit depth : 16 bitsCompression mode : LossyStream size : 229 MiB (16%)
::::::::::SCREENSHOTS::::::::::
Hidden text













Related Torrents

torrent name size files age seed leech

Sharing Widget


Download torrent
1.43 GB
seeders:0
leechers:5
Eid-Tere-Naam-Umer Sharif-Stage Show-720p-Ac3-5.1Channel-By-Pakistani Bacha (TLrG)

Trackers

tracker name Status checked seeders leechers downloads
udp://tracker.openbittorrent.com:80/announce
active 27 Mar 2014 0 5 10
udp://tracker.publicbt.com:80/announce
active 27 Mar 2014 0 5 10
http://10.rarbg.com/announce
private 01 Feb 2013 - - -
http://pow7.com/announce
outdated 01 Feb 2013 - - -
http://genesis.1337x.org:1337/announce
outdated 01 Feb 2013 - - -
http://exodus.1337x.org/announce
outdated 01 Feb 2013 - - -
http://nemesis.1337x.org/announce
outdated 01 Feb 2013 - - -
http://tracker.openbittorrent.com/announce
outdated 01 Feb 2013 - - -
http://tracker.publicbt.com/announce
deleted 11 Mar 2013 - - -
ĀµTorrent compatible trackers list

Locations

name author
ExtraTorrent
Torrent hash: 6129cfc9ce549f6e097e2c78e35b8a13ab51c7a7

All Comments

audio
1/10
video
1/10
please, leave only comments related to that torrent
or sign-in
0
anonymous • 05 March 2013, 22:40 Show comment
audio: 1video: 1

User Opinions

Report a bug