Drive (2011) BDRip XviD-COCAIN

seeders: 51
leechers: 3
Added on Jan 12, 2012 by usinnews8842 in Movies
Torrent verified. Downloaded 10 times.

Summary:
No summary yet
Drive (2011) BDRip XviD-COCAIN (Size: 697.81 MB)
  Drive (2011) BDRip XviD-COCAIN.avi 697.81 MB
  Torrent downloaded from Demonoid.me.txt 46 bytes
  Torrent downloaded from Limetorrents.com.txt 48 bytes

Description

image

Screenshots

image

image

image

image


Title: Drive
Genre: Crime, Drama, Thriller
Rating: 8.1/10 (98,146 Votes) 79%
Staring: Nicolas Winding Refn, Ryan Gosling, Shannon, Bernie Rose, Driver…
Runtime: 100 Mins
Release Date: 3 November 2011

Synopsis:
A Hollywood stunt performer who moonlights as a wheelman discovers that a contract has been put on him after a heist gone wrong.

[code]
Format : AVI
Format/Info : Audio Video Interleave
File size : 698 MiB
Duration : 1h 40mn
Overall bit rate : 968 Kbps

Video
ID : 0
Format : MPEG-4 Visual
Format profile : Advanced Simple@L5
Format settings, BVOP : 1
Format settings, QPel : No
Format settings, GMC : No warppoints
Format settings, Matrix : Default (H.263)
Codec ID : XVID
Codec ID/Hint : XviD
Duration : 1h 40mn
Bit rate : 834 Kbps
Width : 720 pixels
Height : 304 pixels
Display aspect ratio : 2.35:1
Frame rate : 23.976 fps
Color space : YUV
Chroma subsampling : 4:2:0
Bit depth : 8 bits
Scan type : Progressive
Compression mode : Lossy
Bits/(Pixel*Frame) : 0.159
Stream size : 601 MiB (86%)
Writing library : XviD 1.2.1 (UTC 2008-12-04)

Audio
ID : 1
Format : MPEG Audio
Format version : Version 1
Format profile : Layer 3
Mode : Joint stereo
Mode extension : MS Stereo
Codec ID : 55
Codec ID/Hint : MP3
Duration : 1h 40mn
Bit rate mode : Constant
Bit rate : 128 Kbps
Channel(s) : 2 channels
Sampling rate : 48.0 KHz
Compression mode : Lossy
Stream size : 92.3 MiB (13%)
Alignment : Aligned on interleaves
Interleave, duration : 167 ms (4.00 video frames)
Interleave, preload duration : 216 ms
Writing library : LAME3.98r
Encoding settings : -m j -V 4 -q 2 -lowpass 17 -b 128

Related Torrents

torrent name size files age seed leech

Sharing Widget


Download torrent
697.81 MB
seeders:51
leechers:3
Drive (2011) BDRip XviD-COCAIN

Trackers

tracker name Status checked seeders leechers downloads
udp://tracker.publicbt.com:80/announce
outdated 12 Oct 2013 - - -
udp://tracker.openbittorrent.com:80/announce
outdated 12 Oct 2013 - - -
udp://tracker.1337x.org:80/announce
outdated 28 Aug 2013 - - -
http://tracker.openbittorrent.com/announce
outdated 28 Aug 2013 - - -
http://cpleft.com:2710/announce
outdated 28 Aug 2013 - - -
http://tracker.torrentbay.to:6969/announce
outdated 28 Aug 2013 - - -
http://tracker.publicbt.com/announce
deleted 28 Aug 2013 - - -
µTorrent compatible trackers list

Locations

name
KickassTorrents
ThePirateBay
Torrent hash: 1B55ECC265BB497C9AB139C6A33FDA4B54793502

All Comments

audio
8/10
video
9/10
please, leave only comments related to that torrent
or sign-in
0
jero61000 • 31 May 2014, 16:09
torrent downloaded
Show comment
audio: 9video: 9
good
0
Drunk_Driver4922 • 07 July 2013, 02:49
torrent downloaded
Show comment
audio: 9video: 9
nice qualityyy
0
Prototype9921001 • 12 April 2013, 10:44
torrent downloaded
Show comment
audio: 8video: 9
good download
thank
0
Watermelonn1944 • 10 March 2013, 05:46
torrent downloaded
Show comment
audio: 8video: 8
thanx
0
fodder10002349 • 21 February 2013, 11:25
torrent downloaded
Show comment
audio: 8video: 8
Thanks
0
pratham5551 • 20 December 2012, 07:01
torrent downloaded
Show comment
nice print...fast download
0
Avien24 • 17 August 2012, 06:29
torrent downloaded
Show comment
audio: 8video: 8
Not the best BDRip I've seen, however for the size and the speed >1MB, it was well worth the download.
Awesome movie, great cinematography.
0
dejan20061221 • 09 August 2012, 09:11
torrent downloaded
Show comment
audio: 9video: 9
thanks
keep it up with good work
1
Djamel72012.55K • 21 June 2012, 10:46 Show comment
nice one boo
Show More

User Opinions

Report a bug