Dragon Eyes 2012 720p BRRip XviD AC3-26k

seeders: 10
leechers: 14
Added on Apr 15, 2012 by hail_alpha66.4K in Movies > Highres Movies
Torrent verified. Downloaded 25 times.

Summary:
In St. Jude, drug dealers and corrupt cops have destroyed an urban neighborhood. But newcomer, Hong, has the fighting skills and moral vision to save this town from itself.
Submitted by 5fingerdis47.08K
report summary
Available in versions: 1080p720pBDRipHDRiPDVDDVDRipMPEG-4
Dragon Eyes 2012 720p BRRip XviD AC3-26k (Size: 2.24 GB)
  1.png 1.1 MB
  2.png 586.29 KB
  26k nfo.nfo 3.58 KB
  3.png 761.67 KB
  4.png 442.89 KB
  defqonone.net.txt 44 bytes
  Dragon Eyes 2012 720p BRRip XviD AC3-26k.avi 2.24 GB
  Dragon Eyes 2012 720p BRRip XviD AC3-26k.jpg 132.14 KB
  HDSceneRG.txt 115 bytes
  Sceneunderground.org.txt 77 bytes
  Torrent downloaded from Demonoid.me.txt 46 bytes
  Torrent downloaded from rarbg.com.txt.txt 0 bytes
  YouTube Latest Releases And Archive.txt 86 bytes

Description

image


Dragon Eyes 2012 720p BRRip XviD AC3-26k

http://www.imdb.com/title/tt1735862/

Plot:
In St. Jude, drug dealers and corrupt cops have destroyed an urban neighborhood. 
But newcomer, Hong, has the fighting skills and moral vision to save this town 
from itself.

Sources - dragon.eyes.2012.1080p.bluray.x264-unveil..... Thanks :P


Format : AVI
Format/Info : Audio Video Interleave
Format profile : OpenDML
File size : 2.24 GiB
Duration : 1h 27mn
Overall bit rate : 3 656 Kbps
Writing library : VirtualDub build 32839/release

Video
ID : 0
Format : MPEG-4 Visual
Format profile : Advanced Simple@L5
Format settings, BVOP : 2
Format settings, QPel : No
Format settings, GMC : No warppoints
Format settings, Matrix : Default (H.263)
Codec ID : XVID
Codec ID/Hint : XviD
Duration : 1h 27mn
Bit rate : 3 003 Kbps
Width : 1 280 pixels
Height : 544 pixels
Display aspect ratio : 2.35:1
Frame rate : 25.000 fps
Color space : YUV
Chroma subsampling : 4:2:0
Bit depth : 8 bits
Scan type : Progressive
Compression mode : Lossy
Bits/(Pixel*Frame) : 0.173
Stream size : 1.84 GiB (82%)
Writing library : XviD 1.2.1 (UTC 2008-12-04)

Audio
ID : 1
Format : AC-3
Format/Info : Audio Coding 3
Mode extension : CM (complete main)
Codec ID : 2000
Duration : 1h 27mn
Bit rate mode : Constant
Bit rate : 640 Kbps
Channel(s) : 6 channels
Channel positions : Front: L C R, Side: L R, LFE
Sampling rate : 48.0 KHz
Bit depth : 16 bits
Compression mode : Lossy
Stream size : 402 MiB (18%)
Alignment : Split accross interleaves
Interleave, duration : 40 ms (1.00 video frame)
Interleave, preload duration : 500 ms

Notes -

Did my thing... turned out real nice...enjoy :P



Screens:
image
image
image
image
image


Greetz:
Xtreme Encode|FYA|ILLUMANTI|CM8|RX|VISI​ON|HDSCENE|xTriLL|DTRG|CRYS|REMIX​HD|BIDA|RX|REFILL|INSPiRAL|SIC|
|HO​PE|Anonymous|GooN|miRaGe
To all the people who have helped me you know who you are

Anything to offer email us @: 26k@hushmail.me


image
Thank you smallz for banner!

Related Torrents

torrent name size files age seed leech

Sharing Widget


Download torrent
2.24 GB
seeders:10
leechers:14
Dragon Eyes 2012 720p BRRip XviD AC3-26k

Trackers

tracker name Status checked seeders leechers downloads
http://10.rarbg.com/announce
private 09 May 2012 - - -
udp://tracker.1337x.org:80/announce
outdated 15 Apr 2012 - - -
http://cpleft.com:2710/announce
outdated 15 Apr 2012 - - -
udp://tracker.istole.it:80/announce
outdated 15 Apr 2012 - - -
udp://tracker.publicbt.com:80/announce
outdated 15 Apr 2012 - - -
udp://tracker.openbittorrent.com:80/announce
outdated 15 Apr 2012 - - -
http://exodus.desync.com:6969/announce
blocked 19 Aug 2012 - - -
http://fr33dom.h33t.com:3310/announce
deleted 01 Apr 2013 - - -
http://tracker.novalayer.org:6969/announce
pending 15 Apr 2012 0 0 0
µTorrent compatible trackers list

Locations

name
KickassTorrents
Torrent hash: CF43D3361D0D1C15C3A9EEE576F18215E52D7EF9

All Comments

audio
8/10
video
8/10
please, leave only comments related to that torrent
or sign-in
0
brushwood20111164 • 17 June 2012, 08:19
torrent downloaded
Show comment
Thank you for the upload.
-1
abbshere128 • 08 May 2012, 15:41
torrent downloaded
Show comment
audio: 8video: 8
okay movie. good print.
1
kanada6187 • 17 April 2012, 02:04
torrent downloaded
Show comment
audio: 8video: 8
sweet!
0
GrimPirate9895 • 15 April 2012, 21:20
torrent downloaded
Show comment
audio: 10video: 10
Excellent BR quality, thanks

User Opinions

Report a bug