DJ Elon Matana - Hits of 2012 Vol 2, 3, 4, 5 & 6

seeders: 14
leechers: 0
Added on Jul 9, 2012 by Sbyky20.35K in Music
Torrent verified. Downloaded 10 times.

DJ Elon Matana - Hits of 2012 Vol 2, 3, 4, 5 & 6 (Size: 1.32 GB)
  DJ Elon Matana - Hits of 2012 Vol 2.flv 100.33 MB
  DJ Elon Matana - Hits of 2012 Vol 3.mp4 315.06 MB
  DJ Elon Matana - Hits of 2012 Vol 4.mp4 314.15 MB
  DJ Elon Matana - Hits of 2012 Vol 5.mp4 313.74 MB
  DJ Elon Matana - Hits of 2012 Vol 6.mp4 308.82 MB
  DJ.Elon.Matana.png 686.22 KB
  FilesInfo.txt 12.97 KB
  Shared By Sbyky.txt 22 bytes
  Torrent downloaded from Demonoid.me.txt 46 bytes

Description

image

General
Complete name : DJ Elon Matana - Hits of 2012 Vol 2.FLV
Format : Flash Video
File size : 100 MiB
Duration : 14mn 59s
Overall bit rate : 935 Kbps

Video
Format : AVC
Format/Info : Advanced Video Codec
Format profile : Main@L3.0
Format settings, CABAC : Yes
Format settings, ReFrames : 3 frames
Format settings, GOP : M=1, N=25
Codec ID : 7
Duration : 14mn 59s
Bit rate : 799 Kbps
Width : 600 pixels
Height : 480 pixels
Display aspect ratio : 5:4
Frame rate mode : Constant
Frame rate : 25.000 fps
Color space : YUV
Chroma subsampling : 4:2:0
Bit depth : 8 bits
Scan type : Progressive
Bits/(Pixel*Frame) : 0.111
Stream size : 85.7 MiB (85%)

Audio
Format : AAC
Format/Info : Advanced Audio Codec
Format profile : LC
Codec ID : 10
Duration : 14mn 59s
Bit rate : 128 Kbps
Channel(s) : 2 channels
Channel positions : Front: L R
Sampling rate : 44.1 KHz
Compression mode : Lossy
Stream size : 13.8 MiB (14%)

General
Complete name : DJ Elon Matana - Hits of 2012 Vol 3.MP4
Format : MPEG-4
Format profile : Base Media / Version 2
Codec ID : mp42
File size : 315 MiB
Duration : 14mn 53s
Overall bit rate mode : Variable
Overall bit rate : 2 959 Kbps
Encoded date : UTC 2011-09-26 17:19:32
Tagged date : UTC 2011-09-26 17:19:32

Video
ID : 1
Format : AVC
Format/Info : Advanced Video Codec
Format profile : High@L3.1
Format settings, CABAC : Yes
Format settings, ReFrames : 1 frame
Codec ID : avc1
Codec ID/Info : Advanced Video Coding
Duration : 14mn 53s
Bit rate : 2 804 Kbps
Maximum bit rate : 7 289 Kbps
Width : 1 280 pixels
Height : 720 pixels
Display aspect ratio : 16:9
Frame rate mode : Constant
Frame rate : 25.000 fps
Color space : YUV
Chroma subsampling : 4:2:0
Bit depth : 8 bits
Scan type : Progressive
Bits/(Pixel*Frame) : 0.122
Stream size : 299 MiB (95%)
Tagged date : UTC 2011-09-26 17:19:38

Audio
ID : 2
Format : AAC
Format/Info : Advanced Audio Codec
Format profile : LC
Codec ID : 40
Duration : 14mn 53s
Bit rate mode : Variable
Bit rate : 151 Kbps
Maximum bit rate : 197 Kbps
Channel(s) : 2 channels
Channel positions : Front: L R
Sampling rate : 44.1 KHz
Compression mode : Lossy
Stream size : 16.0 MiB (5%)
Title : IsoMedia File Produced by Google, 5-11-2011
Encoded date : UTC 2011-09-26 17:19:33
Tagged date : UTC 2011-09-26 17:19:38

General
Complete name : DJ Elon Matana - Hits of 2012 Vol 4.MP4
Format : MPEG-4
Format profile : Base Media / Version 2
Codec ID : mp42
File size : 314 MiB
Duration : 14mn 59s
Overall bit rate mode : Variable
Overall bit rate : 2 929 Kbps
Encoded date : UTC 2012-05-19 09:41:51
Tagged date : UTC 2012-05-19 09:41:51

Video
ID : 1
Format : AVC
Format/Info : Advanced Video Codec
Format profile : High@L3.1
Format settings, CABAC : Yes
Format settings, ReFrames : 1 frame
Codec ID : avc1
Codec ID/Info : Advanced Video Coding
Duration : 14mn 59s
Bit rate : 2 775 Kbps
Maximum bit rate : 7 668 Kbps
Width : 1 280 pixels
Height : 720 pixels
Display aspect ratio : 16:9
Frame rate mode : Constant
Frame rate : 25.000 fps
Color space : YUV
Chroma subsampling : 4:2:0
Bit depth : 8 bits
Scan type : Progressive
Bits/(Pixel*Frame) : 0.120
Stream size : 298 MiB (95%)
Tagged date : UTC 2012-05-19 09:41:52

Audio
ID : 2
Format : AAC
Format/Info : Advanced Audio Codec
Format profile : LC
Codec ID : 40
Duration : 14mn 59s
Bit rate mode : Variable
Bit rate : 152 Kbps
Maximum bit rate : 217 Kbps
Channel(s) : 2 channels
Channel positions : Front: L R
Sampling rate : 44.1 KHz
Compression mode : Lossy
Stream size : 16.3 MiB (5%)
Title : IsoMedia File Produced by Google, 5-11-2011
Encoded date : UTC 2012-05-19 09:41:52
Tagged date : UTC 2012-05-19 09:41:52

General
Complete name : DJ Elon Matana - Hits of 2012 Vol 5.MP4
Format : MPEG-4
Format profile : Base Media / Version 2
Codec ID : mp42
File size : 314 MiB
Duration : 14mn 59s
Overall bit rate mode : Variable
Overall bit rate : 2 927 Kbps
Encoded date : UTC 2012-05-19 15:28:50
Tagged date : UTC 2012-05-19 15:28:50

Video
ID : 1
Format : AVC
Format/Info : Advanced Video Codec
Format profile : High@L3.1
Format settings, CABAC : Yes
Format settings, ReFrames : 1 frame
Codec ID : avc1
Codec ID/Info : Advanced Video Coding
Duration : 14mn 59s
Bit rate : 2 772 Kbps
Maximum bit rate : 9 936 Kbps
Width : 1 280 pixels
Height : 720 pixels
Display aspect ratio : 16:9
Frame rate mode : Constant
Frame rate : 25.000 fps
Color space : YUV
Chroma subsampling : 4:2:0
Bit depth : 8 bits
Scan type : Progressive
Bits/(Pixel*Frame) : 0.120
Stream size : 297 MiB (95%)
Tagged date : UTC 2012-05-19 15:28:50

Audio
ID : 2
Format : AAC
Format/Info : Advanced Audio Codec
Format profile : LC
Codec ID : 40
Duration : 14mn 59s
Bit rate mode : Variable
Bit rate : 152 Kbps
Maximum bit rate : 188 Kbps
Channel(s) : 2 channels
Channel positions : Front: L R
Sampling rate : 44.1 KHz
Compression mode : Lossy
Stream size : 16.3 MiB (5%)
Title : IsoMedia File Produced by Google, 5-11-2011
Encoded date : UTC 2012-05-19 15:28:50
Tagged date : UTC 2012-05-19 15:28:50

General
Complete name : DJ Elon Matana - Hits of 2012 Vol 6.MP4
Format : MPEG-4
Format profile : Base Media / Version 2
Codec ID : mp42
File size : 309 MiB
Duration : 14mn 43s
Overall bit rate mode : Variable
Overall bit rate : 2 933 Kbps
Encoded date : UTC 2012-05-15 07:03:00
Tagged date : UTC 2012-05-15 07:03:00

Video
ID : 1
Format : AVC
Format/Info : Advanced Video Codec
Format profile : High@L3.1
Format settings, CABAC : Yes
Format settings, ReFrames : 1 frame
Codec ID : avc1
Codec ID/Info : Advanced Video Coding
Duration : 14mn 43s
Bit rate : 2 781 Kbps
Maximum bit rate : 6 142 Kbps
Width : 1 280 pixels
Height : 720 pixels
Display aspect ratio : 16:9
Frame rate mode : Constant
Frame rate : 25.000 fps
Color space : YUV
Chroma subsampling : 4:2:0
Bit depth : 8 bits
Scan type : Progressive
Bits/(Pixel*Frame) : 0.121
Stream size : 293 MiB (95%)
Tagged date : UTC 2012-05-15 07:03:00

Audio
ID : 2
Format : AAC
Format/Info : Advanced Audio Codec
Format profile : LC
Codec ID : 40
Duration : 14mn 43s
Bit rate mode : Variable
Bit rate : 150 Kbps
Maximum bit rate : 178 Kbps
Channel(s) : 2 channels
Channel positions : Front: L R
Sampling rate : 44.1 KHz
Compression mode : Lossy
Stream size : 15.8 MiB (5%)
Title : IsoMedia File Produced by Google, 5-11-2011
Encoded date : UTC 2012-05-15 07:03:00
Tagged date : UTC 2012-05-15 07:03:00

Shared By Sbyky
image

Related Torrents

torrent name size files age seed leech

Sharing Widget


Download torrent
1.32 GB
seeders:14
leechers:0
DJ Elon Matana - Hits of 2012 Vol 2, 3, 4, 5 & 6

Trackers

tracker name Status checked seeders leechers downloads
udp://tracker.openbittorrent.com:80/announce
active 18 Aug 2014 11 0 10
udp://tracker.publicbt.com:80/announce
active 18 Aug 2014 11 0 10
udp://tracker.istole.it:80/announce
active 18 Aug 2014 14 0 10
http://t1.pow7.com/announce
outdated 06 Jul 2013 - - -
http://pow7.com/announce
outdated 06 Jul 2013 - - -
http://tracker.istole.it/announce
outdated 06 Jul 2013 - - -
http://10.rarbg.com/announce
private 06 Jul 2013 - - -
http://exodus.desync.com:6969/announce
blocked 06 Jul 2013 - - -
http://tracker.publicbt.com/announce
deleted 06 Jul 2013 - - -
udp://fr33domtracker.h33t.com:3310/announce
deleted 06 Jul 2013 - - -
µTorrent compatible trackers list

Locations

name
KickassTorrents
Torrent hash: CFF5D097C51F6B0F5A44D109F0DDEAEEEF944B6A

All Comments

please, leave only comments related to that torrent
or sign-in

User Opinions

fronsy2036, janker191790, FerchoLG257, bling10228, morro59158, shadow_gnel140, arief9123, skogey26, Guapo125, hasanilyas11022 ... And 5 more
jimgdews112
Report a bug