Die Welle, The Wave 2008 DVDrip German English Subs Klam

seeders: 85
leechers: 4
Added on Nov 10, 2011 in Movies
Torrent verified. Downloaded 211 times.

Available in versions: HDRiPDVDRipx264Screener
Die Welle, The Wave 2008 DVDrip German English Subs Klam (Size: 1.57 GB)
  Cover
  Subs
  Die Welle.avi 1.57 GB
  www.Film-Test.nl.jpg 35.44 KB
  New Dutch Site.txt 117 bytes
  Torrent downloaded from Demonoid.com.txt 47 bytes

Description

With: Jürgen Vogel, Frederick Lau and Jennifer Ulrich

Gymnasiumleraar Rainer Wenger start, tijdens een studieweek met als onderwerp 'Staatsvormen', een project in zijn klas met de bedoeling een dictatuur voelbaar te maken. Wat vrij onschuldig begint met begrippen als groepsdruk en discipline ontwikkelt zich na enkele dagen in een serieuze beweging met als naam Die Welle. Al op de derde dag beginnen de scholieren andersdenkenden uit te sluiten en het ene na het andere conflict escaleert.

A high school teacher's unusual experiment to demonstrate to his students what life is like under a dictatorship spins horribly out of control when he forms a social unit with a life of its own.

Included soft English Subs.

------------------ Dutch Friends ------------------
You can find my Friends at: http://www.Film-Test.nl
------ They got my dutch subs ----- and more ------

General:

Complete name : Die Welle\Die Welle.avi
Format : AVI
Format/Info : Audio Video Interleave
File size : 1.57 GiB
Duration : 1h 42mn
Overall bit rate : 2 191 Kbps

Video:

Format : MPEG-4 Visual
Format profile : Simple@L3
Format settings, BVOP : No
Format settings, QPel : No
Format settings, GMC : No warppoints
Format settings, Matrix : Default (H.263)
Codec ID : XVID
Codec ID/Hint : XviD
Duration : 1h 42mn
Bit rate : 1 796 Kbps
Width : 720 pixels
Height : 304 pixels
Display aspect ratio : 2.35:1
Frame rate : 25.000 fps
Color space : YUV
Chroma subsampling : 4:2:0
Bit depth : 8 bits
Scan type : Progressive
Compression mode : Lossy
Bits/(Pixel*Frame) : 0.328
Stream size : 1.28 GiB (82%)
Writing library : XviD 1.1.2 (UTC 2006-11-01)

Audio:

Format : AC-3
Format/Info : Audio Coding 3
Mode extension : CM (complete main)
Codec ID : 2000
Duration : 1h 42mn
Bit rate mode : Constant
Bit rate : 384 Kbps
Channel(s) : 6 channels
Channel positions : Front: L C R, Side: L R, LFE
Sampling rate : 48.0 KHz
Bit depth : 16 bits
Compression mode : Lossy
Stream size : 281 MiB (18%)
Alignment : Aligned on interleaves
Interleave, duration : 32 ms (0.80 video frame)
Interleave, preload duration : 192 ms

Sharing Widget


Download torrent
1.57 GB
seeders:85
leechers:4
Die Welle, The Wave 2008 DVDrip German English Subs Klam

Trackers

tracker name Status checked seeders leechers downloads
udp://tracker.nwps.ws:6969/announce
outdated 15 May 2014 - - -
udp://tracker.publicbt.com:80/announce
outdated 15 May 2014 - - -
udp://tracker.openbittorrent.com:80/announce
outdated 15 May 2014 - - -
udp://tracker.istole.it:80/announce
outdated 13 May 2014 - - -
udp://fr33domtracker.h33t.com:3310/announce
deleted 08 Sep 2013 - - -
http://fr33domtracker.h33t.com:3310/announce
deleted 08 Sep 2013 - - -
http://www.eddie4.nl:6969/announce
error 07 Sep 2013 - - -
http://tracker.nwps.ws:6969/announce
pending 15 May 2014 24 1 130
udp://www.eddie4.nl:6969/announce
pending 15 May 2014 42 1 211
µTorrent compatible trackers list

Locations

name
ThePirateBay
Limetorrents
Torrent hash: 7290898069719a178049cb1032f9480eef7c85f4

All Comments

audio
8/10
video
8/10
please, leave only comments related to that torrent
or sign-in
0
Page394717 • 19 March 2014, 13:03
torrent downloaded
Show comment
audio: 10video: 10
0
stratofm548 • 11 March 2014, 14:10
torrent downloaded
Show comment
thx, excellent movie
-1
Luizph42 • 20 September 2013, 02:41
torrent downloaded
Show comment
audio: 6video: 2
UMA MERDA DE IMAGEM! (os gringos q traduzam o comentário )
0
594mgnav21656 • 06 June 2013, 14:47
torrent downloaded
Show comment
audio: 9video: 8
thanks
0
anonymous • 26 April 2013, 19:48 Show comment
audio: 8video: 8
0
anonymous • 01 April 2013, 17:27 Show comment
audio: 10video: 10
Gute Quali. Weiter So !!
0
anonymous • 30 March 2013, 19:20 Show comment
ΦΟΒΑΜΑΙ , ΒΟΗΘΕΙΑ .
0
Daxter69771 • 17 December 2013, 12:46 Show comment
Αν, φοβάσαι, έλα στο "Κύμα". Μαζί, είμασται πιο δυνατοί!
0
aw3s0m35265 • 14 March 2013, 09:27
torrent downloaded
Show comment
audio: 8video: 8
Good AV ... tkz uploader n seeders ... tongue
0
markizzz331184 • 03 February 2013, 20:07
torrent downloaded
Show comment
thx man
Show More

User Opinions

Report a bug