Dexter Season 08 (all 8 episodes )

seeders: 12
leechers: 3
Added on Aug 24, 2013 by Red49.31K in TV
Torrent verified. Downloaded 10 times.

  • View all Dexter episodes
  • Episode: S08
  • Original run: 01 October 2006 — 22 September 2013
  • Summary:
    A Miami police forensics expert moonlights as a serial killer of criminals whom he believes have escaped justice.
    Submitted by Thhaque329.54K
    report summary
Dexter Season 08 (all 8 episodes ) (Size: 1.27 GB)
  Dexter (s8 ep6) A Little Reflection.flv 144.49 MB
  Dexter (s8 ep7) Dress Code.flv 128.77 MB
  Dexter (s8 ep8) Are We There Yet.flv 122.9 MB
  Dexter (s8 – 1) A Beautiful Day.flv 142.67 MB
  Dexter (s8 – 2).mp4 364.52 MB
  Dexter (s8 – ep 3) What’s Eating Dexter Morgan.flv 132.02 MB
  Dexter (s8 – ep 4) Scar Tissue.flv 139.34 MB
  Dexter (s8 – ep 5) This Little Piggy.flv 123.97 MB

Description

General
Dexter Season 08 (all 8 episodes )




Format : Flash Video
File size : 143 MiB
Duration : 52mn 48s
Overall bit rate : 378 Kbps
Tagged date : UTC 2013-06-30 21:23:40
Tagging application : inlet media FLVTool2 v1.0.6 -

Video
Format : AVC
Format/Info : Advanced Video Codec
Format profile : High@L4.1
Format settings, CABAC : Yes
Format settings, ReFrames : 4 frames
Codec ID : 7
Duration : 52mn 48s
Bit rate : 289 Kbps
Width : 720 pixels
Height : 406 pixels
Display aspect ratio : 16:9
Frame rate mode : Constant
Frame rate : 23.000 fps
Color space : YUV
Chroma subsampling : 4:2:0
Bit depth : 8 bits
Scan type : Progressive
Bits/(Pixel*Frame) : 0.043
Stream size : 110 MiB (77%)


Audio
Format : AAC
Format/Info : Advanced Audio Codec
Format profile : LC
Codec ID : 10
Duration : 52mn 48s
Bit rate : 80.7 Kbps
Channel(s) : 2 channels
Channel positions : Front: L R
Sampling rate : 44.1 KHz
Compression mode : Lossy
Delay relative to video : 84ms
Stream size : 31.9 MiB (22%)

Related Torrents

torrent name size files age seed leech

Sharing Widget


Download torrent
1.27 GB
seeders:12
leechers:3
Dexter Season 08 (all 8 episodes )

Trackers

tracker name Status checked seeders leechers downloads
udp://tracker.openbittorrent.com:80/announce
outdated 09 May 2014 - - -
udp://tracker.publicbt.com:80/announce
outdated 09 May 2014 - - -
http://torrent-downloads.to:5869/announce
outdated 25 Sep 2013 - - -
http://open.tracker.thepiratebay.org/announce
deleted 25 Sep 2013 - - -
http://fr33dom.h33t.com:3310/announce
deleted 25 Sep 2013 - - -
udp://fr33dom.h33t.com:3310/announce
deleted 25 Sep 2013 - - -
http://tracker.blazing.de/announce
error 24 Aug 2013 - - -
http://tracker.trackerfix.com:80/announce
pending 25 Sep 2013 0 0 0
http://denis.stalker.h3q.com:6969/announce
pending 25 Sep 2013 0 0 0
µTorrent compatible trackers list

Locations

name
KickassTorrents
Torrent hash: 56F8E517631548206BC3B945F990B23AF88C6E4C

All Comments

audio
3/10
video
4/10
please, leave only comments related to that torrent
or sign-in
0
maurboo65 • 03 March 2014, 21:32 Show comment
Thanks but.... it's annoying. They're all out of order out of sync and not the complete season. Thanks anyway
0
anonymous • 25 February 2014, 18:29 Show comment
And they are all out of order -I appreciate the effort BUT say WHOT?
0
anonymous • 25 February 2014, 18:25 Show comment
There are more than 8 episodes this is hardly complete!
0
slimshady6291560 • 03 October 2013, 15:03
torrent downloaded
Show comment
audio: 7video: 7
thanks
0
LnclnHghts8428 • 20 September 2013, 15:24
torrent downloaded
Show comment
audio: 7video: 7
For someone used to cams this is perfectly watchable, but since this is not cam it is not a very good copy.
0
Trixxxee199 • 19 September 2013, 02:56
torrent downloaded
Show comment
Thanks
0
anonymous • 17 September 2013, 18:20 Show comment
out of sync, censored, not great quality
1
anonymous • 13 September 2013, 16:05 Show comment
How can Debra Morgan be censored? LOL. Thanks anyways.
0
anonymous • 13 September 2013, 07:06 Show comment
audio: 3video: 5
crap .. lip sync is way out and its censored ... deleting and downloading individual episodes , im not ungrateful just annoyed :)
Show More

User Opinions

kanada6187, Ravo_XP1524, kipling441501, salshk792, dragonkc536, tenmen2424, cpardy1246, FIVEYEARSDEAD207, tracy_phillips171, raduitalianu88 ... And 35 more
skeffinator415, folkrebel263, AdioSS206
Report a bug