Deviation 2012 DVDRiP AC3 XViD - INSPiRAL

seeders: 0
leechers: 0
Added on Mar 3, 2012 in Movies
Torrent verified. Downloaded 0 times.

Available in versions: 720pHDRiPDVDRipiPhone
Deviation 2012 DVDRiP AC3 XViD - INSPiRAL (Size: 1.42 GB)
  Deviation 2012 DVDRiP AC3 XViD - INSPiRAL.avi 1.4 GB
  Deviation 2012 DVDRiP AC3 XViD - INSPiRAL.nfo 2.6 KB
  Deviation SAMPLE - INSPiRAL.avi 22.53 MB
  READ this before playing the Movie.txt 473 bytes
  www.Torrenting.com.txt 473 bytes

Description

.

http://www.torrenting.com : Once & For all ;)


www . Torrenting . Com

(((((((((((((= Enjoy No RAR releases =))))))))))))))))))))


...................................NFO:....................................

.image


TITLE:

Deviation 2012 DVDRiP AC3 XViD - INSPiRAL

IMDB:

http://www.imdb.com/title/tt1785353/


SOURCES:

VIDEO - LEGEND SORS THANKS
AUDIO - LEGEND SORS THANKS
SUBS - None Add

STATS:

Video
ID : 0
Format : MPEG-4 Visual
Format profile : Advanced Simple@L5
Format settings, BVOP : 2
Format settings, QPel : No
Format settings, GMC : No warppoints
Format settings, Matrix : Default (MPEG)
Muxing mode : Packed bitstream
Codec ID : XVID
Codec ID/Hint : XviD
Duration : 1h 26mn
Bit rate : 1 866 Kbps
Width : 720 pixels
Height : 304 pixels
Display aspect ratio : 2.35:1
Frame rate : 25.000 fps
Color space : YUV
Chroma subsampling : 4:2:0
Bit depth : 8 bits
Scan type : Progressive
Compression mode : Lossy
Bits/(Pixel*Frame) : 0.341
Stream size : 1.12 GiB (80%)
Writing library : XviD 64

Audio
ID : 1
Format : AC-3
Format/Info : Audio Coding 3
Mode extension : CM (complete main)
Codec ID : 2000
Duration : 1h 26mn
Bit rate mode : Constant
Bit rate : 448 Kbps
Channel(s) : 6 channels
Channel positions : Front: L C R, Side: L R, LFE
Sampling rate : 48.0 KHz
Bit depth : 16 bits
Compression mode : Lossy
Stream size : 276 MiB (19%)
Alignment : Aligned on interleaves
Interleave, duration : 40 ms (1.00 video frame)
Interleave, preload duration : 512 ms


NOTES:

Straight forward rip of the vobs we were sent......slightly tweaked the contrast,chroma and sharpness.Also had to crop and resize like
you normally have to due ,due too borders.
Audio just stripped and remuxed.

SCREENS:

image
image
image
image


GREETZ:

Past,Present and Future

image

Related Torrents

torrent name size files age seed leech

Sharing Widget


Download torrent
1.42 GB
seeders:0
leechers:0
Deviation 2012 DVDRiP AC3 XViD - INSPiRAL

Trackers

tracker name Status checked seeders leechers downloads
udp://tracker.openbittorrent.com:80/announce
outdated 29 Jan 2013 - - -
udp://tracker.publicbt.com:80/announce
outdated 29 Jan 2013 - - -
udp://tracker.istole.it:80/announce
outdated 29 Jan 2013 - - -
http://exodus.desync.com:6969/announce
blocked 29 Jan 2013 - - -
udp://fr33domtracker.h33t.com:3310/announce
deleted 29 Jan 2013 - - -
ĀµTorrent compatible trackers list

Locations

name author
ThePirateBay TvTeam
Torrent hash: 3c86c9b8915cc2314c22423c1b0f284d4853c7ab

All Comments

audio
0/10
video
0/10
please, leave only comments related to that torrent
or sign-in
Report a bug