Deuce Bigalow 1_Male Gigalow [1999]DvdRip.XviD.(.avi)

seeders: 2
leechers: 1
Added on Jan 16, 2011 in Movies
Torrent verified. Downloaded 567 times.

Available in versions: DVDRip
Deuce Bigalow 1_Male Gigalow [1999]DvdRip.XviD.(.avi) (Size: 1.22 GB)
  Deuce Bigalow 1_Male Gigalow (1999).avi 1.19 GB
  sample.avi 25.5 MB

Description

Deuce Bigalow 1_Male Gigalow [1999]DvdRip.XviD.(.avi)


100% Clean, Tested & Working

---------------------------------------------------------------------------

Storyline:
---------
Deuce Bigalow is a less than attractive, down on his luck aquarium cleaner. One day he runs into a male gigolo who asks him to look after his precious fish while he is away on business. However, he wrecks the house and needs quick money to repair it. The only way he can make it is to become a gigolo himself, taking on an unusual mix of female clients. He encounters a couple of problems, though. He falls in love with one of his unusual clients, and a sleazy police officer his hot on his trail.


Cast:
----
Rob Schneider.............Deuce Bigalow
William Forsythe..........Detective Chuck Fowler
Eddie Griffin.............T.J. Hicks
Arija Bareikis............Kate
Oded Fehr.................Antoine Laconte
Gail O'Grady..............Claire
Richard Riehle............Bob Bigalow
Jacqueline Obradors.......Elaine Fowler
Big Boy...................Fluisa
Amy Poehler...............Ruth
Dina Platias ..........Bergita
Torsten Voges.............Tina
Deborah Lemen.............Carol
Bree Turner...............Allison
Andrew Shaifer............Neil


Video Details:
-------------
Format : AVI
Format/Info : Audio Video Interleave
File size : 1.19 GiB
Duration : 1h 28mn
Overall bit rate : 1 933 Kbps
Writing application : VirtualDubMod 1.5.4.1 (build 2178/release)
Writing library : VirtualDubMod build 2178/release


Video:
-----
Format : MPEG-4 Visual
Format profile : Advanced Simple@L5
Format settings, BVOP : Yes
Format settings, QPel : No
Format settings, GMC : No warppoints
Format settings, Matrix : Custom
Codec ID : XVID
Codec ID/Hint : XviD
Duration : 1h 28mn
Bit rate : 1 542 Kbps
Width : 720 pixels
Height : 400 pixels
Display aspect ratio : 16:9
Frame rate : 25.000 fps
Color space : YUV
Chroma subsampling : 4:2:0
Bit depth : 8 bits
Scan type : Progressive
Bits/(Pixel*Frame) : 0.214
Stream size : 976 MiB (80%)
Writing library : XviD 58


Audio:
-----
Format : AC-3
Format/Info : Audio Coding 3
Mode extension : CM (complete main)
Codec ID : 2000
Duration : 1h 28mn
Bit rate mode : Constant
Bit rate : 384 Kbps
Channel(s) : 6 channels
Channel positions : Front: L C R, Side: L R, LFE
Sampling rate : 48.0 KHz
Bit depth : 16 bits
Stream size : 243 MiB (20%)
Alignment : Aligned on interleaves
Interleave, duration : 96 ms (2.40 video frames)
Interleave, preload duration : 96 ms

----------------------------------------------------------------------------


*Remember To Seed



*HAVE FUN AND ENJOY*

Related Torrents

torrent name size files age seed leech

Sharing Widget


Download torrent
1.22 GB
seeders:2
leechers:1
Deuce Bigalow 1_Male Gigalow [1999]DvdRip.XviD.(.avi)

Trackers

tracker name Status checked seeders leechers downloads
http://10.rarbg.com/announce
private 09 May 2012 - - -
http://tracker.openbittorrent.com/announce
outdated 30 Mar 2012 - - -
udp://tracker.istole.it:80/announce
outdated 30 Mar 2012 - - -
udp://tracker.publicbt.com:80/announce
outdated 30 Mar 2012 - - -
udp://tracker.openbittorrent.com:80/announce
outdated 30 Mar 2012 - - -
http://bt1.the9.com:6969/announce
outdated 30 Mar 2012 - - -
http://nyaatorrents.info:3277/announce
outdated 30 Mar 2012 - - -
http://nemesis.1337x.org/announce
outdated 30 Mar 2012 - - -
http://genesis.1337x.org:1337/announce
outdated 30 Mar 2012 - - -
http://tracker.istole.it/announce
outdated 30 Mar 2012 - - -
http://exodus.desync.com:6969/announce
blocked 19 Aug 2012 - - -
http://tracker.publicbt.com/announce
deleted 11 Mar 2013 - - -
http://torrent-download.to:5869/announce.php
error 16 Jan 2011 - - -
ĀµTorrent compatible trackers list

Locations

name
ThePirateBay
Torrent hash: ea6524785e67b34e1340785d1956037591263c91

All Comments

audio
9/10
video
8/10
please, leave only comments related to that torrent
or sign-in
0
sascha1971305 • 20 October 2013, 01:33
torrent downloaded
Show comment
Its stuck at 93% someone help me please....
0
MrGimpy1056 • 22 June 2013, 15:42
torrent downloaded
Show comment
audio: 9video: 8
weeeeeeeeee :)
0
snowflake88242 • 07 July 2011, 21:53
torrent downloaded
Show comment
audio: 10video: 10
Very funny! Thanks.
0
angger3702 • 05 July 2011, 19:29
torrent downloaded
Show comment
audio: 10video: 6
nice copy, good movie
0
bullshivick1829 • 25 May 2011, 08:06
torrent downloaded
Show comment
audio: 10video: 6
thanks.
0
luckystrike132233 • 25 May 2011, 06:19
torrent downloaded
Show comment
audio: 8video: 9
thanks
0
OneDollarEach312 • 24 May 2011, 21:42
torrent downloaded
Show comment
audio: 9video: 9
0
tiger6565170 • 22 March 2011, 01:47
torrent downloaded
Show comment
audio: 10video: 10
Great upload

User Opinions

Report a bug