Deep Blue Sea 2011 SCR XViD DTRG

seeders: 0
leechers: 2
Added on Feb 2, 2012 by Evil Boy™16364 in Movies
Torrent verified. Downloaded once.

Deep Blue Sea 2011 SCR XViD DTRG (Size: 1.24 GB)
  Deep Blue Sea.avi 1.22 GB
  Sample.avi 17.82 MB

Description

image
Format : AVI
Format/Info : Audio Video Interleave
File size : 1.22 GiB
Duration : 1h 34mn
Overall bit rate : 1 850 Kbps
Writing library : VirtualDub build 32842/release

Video
ID : 0
Format : MPEG-4 Visual
Format profile : Advanced Simple@L5
Format settings, BVOP : 1
Format settings, QPel : No
Format settings, GMC : No warppoints
Format settings, Matrix : Default (H.263)
Muxing mode : Packed bitstream
Codec ID : XVID
Codec ID/Hint : XviD
Duration : 1h 34mn
Bit rate : 1 712 Kbps
Width : 720 pixels
Height : 400 pixels
Display aspect ratio : 16:9
Frame rate : 25.000 fps
Color space : YUV
Chroma subsampling : 4:2:0
Bit depth : 8 bits
Scan type : Progressive
Compression mode : Lossy
Bits/(Pixel*Frame) : 0.238
Stream size : 1.13 GiB (93%)
Writing library : XviD 64

Audio
ID : 1
Format : AC-3
Format/Info : Audio Coding 3
Mode extension : CM (complete main)
Codec ID : 2000
Duration : 1h 34mn
Bit rate mode : Constant
Bit rate : 128 Kbps
Channel(s) : 2 channels
Channel positions : Front: L R
Sampling rate : 48.0 KHz
Bit depth : 16 bits
Compression mode : Lossy
Stream size : 86.4 MiB (7%)
Alignment : Aligned on interleaves
Interleave, duration : 40 ms (1.00 video frame)
Interleave, preload duration : 512 ms



http://www.imdb.com/title/tt1700844/
image
image
image

Sharing Widget


Download torrent
1.24 GB
seeders:0
leechers:2
Deep Blue Sea 2011 SCR XViD DTRG

Trackers

tracker name Status checked seeders leechers downloads
http://tracker.openbittorrent.com/announce
outdated 02 Feb 2012 - - -
udp://tracker.openbittorrent.com:80/announce
outdated 02 Feb 2012 - - -
udp://tracker.publicbt.com:80/announce
outdated 02 Feb 2012 - - -
http://fr33dom.h33t.com:3310/announce
deleted 03 May 2013 - - -
http://tracker.publicbt.com/announce
deleted 02 Feb 2012 - - -
µTorrent compatible trackers list

Locations

name author
KickassTorrents Evil Boy
Torrent hash: 60EE5D7643BD8707F711916F0084E2102EEAC42C

All Comments

audio
0/10
video
0/10
please, leave only comments related to that torrent
or sign-in
Report a bug