David Lynch - Lost Highway (1997)

seeders: 15
leechers: 4
Added on Feb 28, 2011 in Movies
Torrent verified. Downloaded 10 times.

David Lynch - Lost Highway (1997) (Size: 1.99 GB)
  Lost Highway (1997).avi 1.99 GB
  Lost Highway (1997).eng.srt 37.63 KB
  Lost Highway (1997).ptb.srt 37.56 KB

Description

Five years after the critical and commercial disappointment of Twin Peaks: Fire Walk With Me, director David Lynch returned to the big screen with this cryptic thriller about confused identities and erotic obsession. Fred (Bill Pullman) is an avant-garde jazz saxophonist who shares a luxurious but fashionably barren house with his wife Renee (Patricia Arquette). Fred suspects that Renee may be unfaithful to him, but realizes he has bigger things to worry about when a series of videotapes appear at his door that prove someone is watching his home from the outside and inside. When Renee is found murdered, Fred finds himself behind bars, but one morning Fred is no longer in his cell. He has seemingly been transformed into Pete Drayton (Balthazar Getty), a young auto mechanic who foolishly allowed himself to get involved with the wife of gangster Dick Laurent (Robert Loggia), a luscious blonde named Alice who looks exactly like Renee.

General
Complete name : Lost Highway (1997).avi
Format : AVI
Format/Info : Audio Video Interleave
Format profile : OpenDML
File size : 1.99 GiB
Duration : 2h 14mn
Overall bit rate : 2 127 Kbps
Movie name : S
Director : K
Writing application : VirtualDubMod 1.5.10.2 (build 2542/release)
Writing library : VirtualDubMod build 2542/release
Copyright : h
Video #0
ID : 0
Format : MPEG-4 Visual
Format profile : AdvancedSimple@L5
Format settings, BVOP : Yes
Format settings, QPel : No
Format settings, GMC : No warppoints
Format settings, Matrix : Default (MPEG)
Codec ID : XVID
Codec ID/Hint : XviD
Duration : 2h 14mn
Bit rate : 1 666 Kbps
Width : 720 pixels
Height : 304 pixels
Display aspect ratio : 2.35:1
Frame rate : 24.000 fps
Resolution : 24 bits
Colorimetry : 4:2:0
Scan type : Progressive
Bits/(Pixel*Frame) : 0.317
Stream size : 1.56 GiB (78%)
Writing library : XviD 1.2.1 (UTC 2008-12-04)
Audio #1
ID : 1
Format : AC-3
Format/Info : Audio Coding 3
Codec ID : 2000
Duration : 2h 14mn
Bit rate mode : Constant
Bit rate : 448 Kbps
Channel(s) : 6 channels
Channel positions : Front: L C R, Surround: L R, LFE
Sampling rate : 48.0 KHz
Stream size : 430 MiB (21%)
Alignment : Split accross interleaves
Interleave, duration : 42 ms (1.00 video frame)
Interleave, preload duration : 500 ms

http://www.imdb.com/title/tt0116922/

English audio: English and Portuguese subtitles

Posted at KG by robertrath, whom we thank

David Lynch - Lost Highway (1997)

Related Torrents

torrent name size files age seed leech

Sharing Widget


Download torrent
1.99 GB
seeders:15
leechers:4
David Lynch - Lost Highway (1997)

Trackers

tracker name Status checked seeders leechers downloads
udp://tracker.openbittorrent.com:80/announce
outdated 06 Jun 2014 - - -
udp://tracker.publicbt.com:80/announce
outdated 06 Jun 2014 - - -
udp://tracker.istole.it:80/announce
outdated 30 May 2014 - - -
http://tracker.bittorrent.am/announce
outdated 27 May 2013 - - -
udp://tracker.torrentbox.com:2710/announce
outdated 27 May 2013 - - -
http://exodus.desync.com:6969/announce
blocked 27 May 2013 - - -
udp://fr33domtracker.h33t.com:3310/announce
deleted 27 May 2013 - - -
udp://tracker.ccc.de:80/announce
deleted 27 May 2013 - - -
http://torrent-download.to:5869/announce
error 13 Nov 2012 - - -
http://tracker.torrentfr.org:56666/announce
error 13 Nov 2012 - - -
http://www.sumotracker.com/announce
error 13 Nov 2012 - - -
http://www.torrent-downloads.to:2710/announce
error 13 Nov 2012 - - -
ĀµTorrent compatible trackers list

Locations

name
ThePirateBay
Limetorrents
Limetorrents
Torrent hash: 0209990ba079828588ea4de186a0f1ae9789245b

All Comments

audio
9/10
video
9/10
please, leave only comments related to that torrent
or sign-in
0
MyAva422 • 07 June 2014, 11:51
torrent downloaded
Show comment
audio: 10video: 10
Parfait!
0
TenthDoctor2547 • 17 February 2014, 01:19
torrent downloaded
Show comment
audio: 9video: 9
good dl
0
Xadow21192 • 20 January 2014, 04:54
torrent downloaded
Show comment
audio: 9video: 9
Thanks uploader.. Nice movie.. great quality..!!
0
JamSlam2124 • 21 November 2013, 20:52
torrent downloaded
Show comment
audio: 9video: 9
Good torrent. Thanks.
0
SeoulDave1411 • 21 October 2013, 14:39
torrent downloaded
Show comment
Thank you, from Seoul
0
csremre1258 • 03 July 2013, 23:48
torrent downloaded
Show comment
audio: 9video: 9
0
cntsjr1090 • 11 June 2013, 18:38
torrent downloaded
Show comment
audio: 10video: 10
Collateral!
0
Itsdaveman51 • 06 May 2013, 05:28
torrent downloaded
Show comment
audio: 10video: 10
Thank you uploader!!!
1
gionidaz26 • 07 June 2011, 00:04
torrent downloaded
Show comment
one of david lynch's best films for sure
0
Itsdaveman51 • 06 May 2013, 05:29
torrent downloaded
Show comment
Which others do you like? I keep trying to watch his films and have had bad luck finding good copy's of them.

User Opinions

JamSlam2124, csremre1258, cntsjr1090, DracoPOL624, Boomer86371, xossir211, UrineDenial128, pinkMoses97, lukins27, gionidaz26 ... And 19 more
Report a bug