Daddy Cool Munde Fool 2013 [1CD Rip Xvid] [Punjabi Movie]

seeders: 2
leechers: 1
Added on Apr 15, 2013 in Movies
Downloaded 10 times.

Summary:
No summary yet
Available in versions: 720pHDRiPDVDRipScreener
Daddy Cool Munde Fool 2013 [1CD Rip Xvid] [Punjabi Movie] (Size: 701.72 MB)
  Daddy Cool Munde Fool 2013 [1CD Rip] [Punjabi Movie].avi 701.72 MB

Description


Download Punjabi Movie Daddy Cool Munde Fool
General

Complete name Daddy Cool Munde Fool 2013 [1CD Rip] [Punjabi Movie].avi

Format : AVI

Format/Info : Audio Video Interleave

File size : 702 MiB

Duration : 2h 6mn

Overall bit rate : 777 Kbps

Writing application : Lavf51.12.1
Video

ID : 0

Format : xvid

Codec ID : xvid

Duration : 2h 6mn

Bit rate : 700 Kbps

Width : 640 pixels

Height : 272 pixels

Display aspect ratio : 2.35:1

Frame rate : 25.000 fps

Bits/(Pixel*Frame) : 0.161

Stream size : 633 MiB (90%)
Audio

ID : 1

Format : MPEG Audio

Format version : Version 1

Format profile : Layer 3

Mode : Joint stereo

Mode extension : MS Stereo

Codec ID : 55

Codec ID/Hint : MP3

Duration : 2h 6mn

Bit rate mode : Constant

Bit rate : 64.0 Kbps

Channel(s) : 2 channels

Sampling rate : 44.1 KHz

Compression mode : Lossy

Stream size : 57.8 MiB (8%)

Alignment : Aligned on interleaves

Interleave, duration : 26 ms (0.65 video frame)

Interleave, preload duration : 26 ms
Movie Screen Shots

Related Torrents

torrent name size files age seed leech

Sharing Widget


Download torrent
701.72 MB
seeders:2
leechers:1
Daddy Cool Munde Fool 2013 [1CD Rip Xvid] [Punjabi Movie]

Trackers

tracker name Status checked seeders leechers downloads
http://pow7.com/announce
active 04 Oct 2014 0 0 0
udp://tracker.publicbt.com:80/announce
active 04 Oct 2014 2 0 10
udp://tracker.openbittorrent.com:80/announce
active 04 Oct 2014 2 1 10
udp://tracker.istole.it:80/announce
active 04 Oct 2014 2 0 6
udp://tracker.1337x.org:80/announce
outdated 28 May 2013 - - -
udp://tracker.ccc.de:80/announce
deleted 28 May 2013 - - -
udp://fr33domtracker.h33t.com:3310/announce
deleted 28 May 2013 - - -
ĀµTorrent compatible trackers list

Locations

name
ExtraTorrent
Torrent hash: 45302097BE476113738D9326A561C5A9B4518E1C

All Comments

audio
4/10
video
4/10
please, leave only comments related to that torrent
or sign-in
0
rekhakhanna221 • 06 October 2014, 06:42 Show comment
audio: 1video: 1
faltu print!!!!
0
The.UnKnOWn1443 • 12 July 2013, 17:42
torrent downloaded
Show comment
audio: 7video: 6
thanks !
0
anonymous • 17 April 2013, 16:19 Show comment
virus detected
0
anonymous • 17 April 2013, 13:07 Show comment
audio: 1video: 1
very good aa
0
anonymous • 16 April 2013, 22:24 Show comment
Is is ok to watch, or wait for the better one.....
0
anonymous • 16 April 2013, 05:36 Show comment
plzz upload Singh Vs Kaur
0
anonymous • 16 April 2013, 12:49 Show comment
22 g aa tan tv te vi aa gi te tusi hune uipload karan nu firde hun aa gi hoyi aa
0
anonymous • 17 April 2013, 01:05 Show comment
i also desperately need it in DVDrip.......
0
anonymous • 15 April 2013, 05:26 Show comment
audio: 8video: 7
0
anonymous • 15 April 2013, 05:25 Show comment
audio: 6video: 6
theek thaak hai ..... watchable ...

User Opinions

Report a bug