D.W.Griffith -- Intolerance (1916) DVDRip.XviD

seeders: 0
leechers: 0
Added on Jun 5, 2009 in Movies
Downloaded 0 times.

D.W.Griffith -- Intolerance (1916) DVDRip.XviD (Size: 2.92 GB)
  Intolerance.1916.DVDRip.XviD.AC3.Eng.avi 2.76 GB
  Special.features.avi 160.76 MB
  Special.features.pdf 1.14 MB

Description

Source: http://www.kino.com/video/item.php?film_id=144
English intertitles
Extras included

General
Format : AVI
Format/Info : Audio Video Interleave
Format profile : OpenDML
File size : 2.76 GiB
Duration : 3h 17mn
Overall bit rate : 1 997 Kbps
Writing application : VirtualDubMod 1.5.10.2 (build 2542/release)
Writing library : VirtualDubMod build 2542/release

Video
Format : MPEG-4 Visual
Format profile : Streaming Video@L1
Format settings, BVOP : Yes
Format settings, QPel : No
Format settings, GMC : No warppoints
Format settings, Matrix : Default (H.263)
Codec ID : XVID
Codec ID/Hint : XviD
Duration : 3h 17mn
Bit rate : 1 791 Kbps
Width : 608 pixels
Height : 416 pixels
Display aspect ratio : 4/3
Frame rate : 29.970 fps
Resolution : 24 bits
Colorimetry : 4:2:0
Scan type : Progressive
Bits/(Pixel*Frame) : 0.236
Stream size : 2.47 GiB (90%)
Writing library : XviD 1.2.1 (UTC 2008-12-04)

Audio
Format : AC-3
Format/Info : Audio Coding 3
Codec ID : 2000
Duration : 3h 17mn
Bit rate mode : Constant
Bit rate : 192 Kbps
Channel(s) : 2 channels
Channel positions : L R
Sampling rate : 48.0 KHz
Stream size : 272 MiB (10%)
Alignment : Split accross interleaves
Interleave, duration : 33 ms (1.00 video frame)
Interleave, preload duration : 500 ms

*********************************** FREAKYFLICKS ************************************

'If we all seed just 1:1, give at least what we take, this torrent will NEVER DIE'

Related Torrents

torrent name size files age seed leech

Sharing Widget


Download torrent
2.92 GB
seeders:0
leechers:0
D.W.Griffith -- Intolerance (1916) DVDRip.XviD

Trackers

tracker name Status checked seeders leechers downloads
http://tracker.openbittorrent.com/announce
outdated 12 Jun 2012 - - -
ĀµTorrent compatible trackers list

Locations

name
ThePirateBay
TorrentReactor
isoHunt
TorrentPortal
SumoTorrent
Torrent hash: b982435da29073a7a1bf99129f2ee7afeb2b7eaf

All Comments

audio
0/10
video
0/10
please, leave only comments related to that torrent
or sign-in
Report a bug