Död Snö 2009 - DVD Rip[AC-3]

seeders: 0
leechers: 0
Added on Apr 8, 2012 in Movies
Torrent verified. Downloaded 0 times.

Död Snö 2009 - DVD Rip[AC-3] (Size: 1.17 GB)
  dod sno.m4v 1.17 GB

Description

Format : MPEG-4
Format profile : Base Media / Version 2
Codec ID : mp42
File size : 1.17 GiB
Duration : 1h 27mn
Overall bit rate mode : Variable
Overall bit rate : 1 918 Kbps
Encoded date : UTC 2012-04-07 22:41:53
Tagged date : UTC 2012-04-07 22:54:55

ID : 1
Format : AVC
Format/Info : Advanced Video Codec
Format profile : Main@L3.0
Format settings, CABAC : Yes
Format settings, ReFrames : 4 frames
Codec ID : avc1
Codec ID/Info : Advanced Video Coding
Duration : 1h 27mn
Bit rate mode : Variable
Bit rate : 1 467 Kbps
Width : 720 pixels
Height : 552 pixels
Display aspect ratio : 1.855
Frame rate mode : Variable
Frame rate : 25.000 fps
Minimum frame rate : 12.500 fps
Maximum frame rate : 25.000 fps
Color space : YUV
Chroma subsampling : 4:2:0
Bit depth : 8 bits
Scan type : Progressive
Bits/(Pixel*Frame) : 0.148
Stream size : 920 MiB (77%)
Writing library : x264 core 120

ID : 2
Format : AC-3
Format/Info : Audio Coding 3
Mode extension : CM (complete main)
Format settings, Endianness : Big
Codec ID : ac-3
Duration : 1h 27mn
Bit rate mode : Constant
Bit rate : 448 Kbps
Channel(s) : 6 channels
Channel positions : Front: L C R, Side: L R, LFE
Sampling rate : 48.0 KHz
Bit depth : 16 bits
Compression mode : Lossy
Delay relative to video : -120ms
Stream size : 281 MiB (23%)
Language : Norwegian

Sharing Widget


Download torrent
1.17 GB
seeders:0
leechers:0
Död Snö 2009 - DVD Rip[AC-3]

Trackers

tracker name Status checked seeders leechers downloads
udp://tracker.publicbt.com:80/announce
outdated 08 Apr 2012 - - -
udp://tracker.istole.it:80/announce
outdated 08 Apr 2012 - - -
udp://tracker.1337x.org:80/announce
outdated 08 Apr 2012 - - -
udp://tracker.openbittorrent.com:80/announce
outdated 08 Apr 2012 - - -
http://exodus.desync.com:6969/announce
blocked 14 Aug 2012 - - -
http://fr33dom.h33t.com:3310/announce
deleted 13 Feb 2013 - - -
ĀµTorrent compatible trackers list

Locations

name
ThePirateBay
Torrent hash: D7C8627B383477339AD2DBDA6213324BF871EF82

All Comments

audio
0/10
video
0/10
please, leave only comments related to that torrent
or sign-in
Report a bug