Cowboys And Aliens 2011 TS XViD UnKnOwN

seeders: 6
leechers: 1
Added on Aug 1, 2011 by hail_alpha66.22K in Movies
Torrent verified. Downloaded 4,351 times.

Cowboys And Aliens 2011 TS XViD UnKnOwN (Size: 1.1 GB)
  Budget seedboxs.txt 44 bytes
  NW RG.nfo 12.96 KB
  Torrent downloaded from Demonoid.me.txt 46 bytes
  unknown.nfo 9.07 KB
  caaUnKnOwN2.avi 1.08 GB
  cowboys--a.jpg 57.8 KB
  dreamthe.net.txt 91 bytes
  northernwarriors.net.txt 135 bytes
  sample.avi 13.63 MB
  Sceneunderground.org.txt 77 bytes

Description

image

Encoded By .......:UnKnOwN 
Runtime ..........:1:53 
IMDb URL .........:http://www.imdb.com/title/tt0409847/ 
Language .........:English 
File Size ........:1.08gb 
Release Date ......... 2011 
Source ......... IMAGINE 
File Type ......... Single AVI 
PS3 Compatible ....... Go for it 
Genre ......... Thriller/Western 
 
 
Video 
ID : 0 
Format : MPEG-4 Visual 
Format profile : Advanced Simple@L5 
Format settings, BVOP : Yes 
Format settings, QPel : No 
Format settings, GMC : No warppoints 
Format settings, Matrix : Custom 
Codec ID : XVID 
Codec ID/Hint : XviD 
Duration : 2h 18mn 
Bit rate : 1 224 Kbps 
Width : 680pixels 
Height : 284 pixels 
Display aspect ratio : 2:35 
Frame rate : 29.976 fps 
Color space : YUV 
Chroma subsampling : 4:2:0 
Bit depth : 8 bits 
Scan type : Progressive 
Bits/(Pixel*Frame) : 0.234 
Stream size : 892 MiB (86%) 
Writing library : XviD 1.2.1 (UTC 2008-12-04) 
 
 
Audio 
ID : 1 
Format : MPEG Audio 
Format/Info : Version 1 
Mode extension : Layer 3 
Codec ID : 2000 
Duration : 1h 53mn 
Bit rate mode : Constant 
Bit rate : 128Kbps 
Channel(s) : 2 channels 
Channel positions : Front: L r 
Sampling rate : 44.0 KHz 
Bit depth : 16 bits 
Stream size : 302 MiB 
Alignment : Aligned on interleaves 
Interleave, duration : 42 ms (1.00 video frame) 
Interleave, preload duration : 512 ms 
 
 SYSPNOSIS 
A spaceship arrives in Arizona, 1873, to take over the Earth, starting with the Wild West region. A posse of cowboys are all that stand in their way.
 RELEASE INFO 
 

Pulled all the green out,adjusted colors look at comparison screens brightened up dark scenes made about 30 cuts for parts.Nothing done to audio just muxed back to our encode complain or enjoy 

Screens:
image
image
image
image
image

Related Torrents

torrent name size files age seed leech

Sharing Widget


Download torrent
1.1 GB
seeders:6
leechers:1
Cowboys And Aliens 2011 TS XViD UnKnOwN

Trackers

tracker name Status checked seeders leechers downloads
http://pow7.com/announce
outdated 09 May 2012 - - -
http://cpleft.com:2710/announce
outdated 17 Sep 2011 - - -
http://open.nyaatorrents.info:6544/announce
outdated 06 Aug 2011 - - -
http://announce.torrentsmd.com:8080/announce.php
private 01 Aug 2011 - - -
http://nemesis.1337x.org/announce
outdated 01 Aug 2011 - - -
http://tracker.openbittorrent.com/announce
outdated 01 Aug 2011 - - -
udp://tracker.publicbt.com:80/announce
outdated 01 Aug 2011 - - -
http://announce.torrentsmd.com:6969/announce
outdated 01 Aug 2011 - - -
http://genesis.1337x.org:1337/announce
outdated 01 Aug 2011 - - -
http://inferno.demonoid.me:3398/announce
outdated 01 Aug 2011 - - -
http://exodus.1337x.org/announce
outdated 01 Aug 2011 - - -
udp://tracker.openbittorrent.com:80/announce
outdated 01 Aug 2011 - - -
http://exodus.desync.com/announce
blocked 18 Aug 2012 - - -
http://tracker.publicbt.com/announce
deleted 11 Mar 2013 - - -
http://tracker.dm258.cn:7070/announce
error 01 Aug 2011 - - -
http://tracker.concen.cc/announce
error 01 Aug 2011 - - -
http://9.rarbg.com:2710/announce
private 01 Aug 2011 - - -
http://opentracker.umunu.com/announce
error 01 Aug 2011 - - -
http://byteshower.appspot.com/announce
pending 01 Aug 2011 0 0 0
ĀµTorrent compatible trackers list

Locations

name
KickassTorrents
ThePirateBay
Torrent hash: EDE2225E9B39F2E862557BFE0F2E9E843D4492F0

All Comments

audio
5/10
video
4/10
please, leave only comments related to that torrent
or sign-in
0
anonymous • 06 October 2011, 14:07 Show comment
audio: 1video: 1
file asks for a coral player which you have to buy and it doesn't play it anyway!! It's not worth your time!
0
DestinyX225 • 11 August 2011, 19:25
torrent downloaded
Show comment
audio: 9video: 9
good very watchable
0
grer5 • 02 August 2011, 02:31
torrent downloaded
Show comment
the sound is way off. the pict.is pretty good.I think u should wait for better if u want to enjoy this movie. 6 and 4 is prob. hi.
-1
Joohunta17 • 01 August 2011, 14:39
torrent downloaded
Show comment
audio: 6video: 4
Poor. Very very dark. Sound was poor.
Audio 6
Video 4

User Opinions

Report a bug