Advertising (remove)

Cougar Tales 5 XXX DVDRip XviD -Pr0nStarS

seeders: 0
leechers: 0
Added on Sep 29, 2012 by Silmarillion241.77K in XXX > Video
Torrent verified. Downloaded 0 times.

Cougar Tales 5 XXX DVDRip XviD -Pr0nStarS (Size: 700.02 MB)
  ps-ct5.avi 700.02 MB
Advertising (remove)

Description




Poster

Screens



Category All Sex Movies, MILF / Cougar

Starring Veronica Avluv, Zoey Holloway, Diana Prince, Kayla Carrera


Description

Cougar Tales # 5 porn In Cougar Tales, we set out in search of the elusive cougar... a sexy, sultry middle-aged slut with a rockin' body and a libido to match, but little did we know, WE were the ones being hunted! Cougars are magnificent MILFs on the prowl who are ready to sink their claws into any unsuspecting young stud they can get their claws into! Once they've pounced on their prey, these sexy, sinful cougars waste no time in getting to the juicy man-meat, sucking and fucking these young bucks until every last drop of their joy-juice is drained dry!



Format : AVI
Format/Info : Audio Video Interleave
File size : 700 MiB
Duration : 1h 41mn
Overall bit rate mode : Variable
Overall bit rate : 960 Kbps
Writing application : VirtualDubMod 1.5.10.2 (build 2540/release)
Writing library : VirtualDubMod build 2540/release

Video
ID : 0
Format : MPEG-4 Visual
Format profile : Advanced Simple@L5
Format settings, BVOP : 2
Format settings, QPel : No
Format settings, GMC : No warppoints
Format settings, Matrix : Default (H.263)
Codec ID : XVID
Codec ID/Hint : XviD
Duration : 1h 41mn
Bit rate : 791 Kbps
Width : 624 pixels
Height : 352 pixels
Display aspect ratio : 16:9
Frame rate : 23.976 fps
Color space : YUV
Chroma subsampling : 4:2:0
Bit depth : 8 bits
Scan type : Progressive
Compression mode : Lossy
Bits/(Pixel*Frame) : 0.150
Stream size : 577 MiB (82%)
Writing library : XviD 1.0.3 (UTC 2004-12-20)

Audio
ID : 1
Format : MPEG Audio
Format version : Version 1
Format profile : Layer 3
Mode : Joint stereo
Mode extension : MS Stereo
Codec ID : 55
Codec ID/Hint : MP3
Duration : 1h 41mn
Bit rate mode : Variable
Bit rate : 160 Kbps
Channel(s) : 2 channels
Sampling rate : 48.0 KHz
Compression mode : Lossy
Stream size : 114 MiB (16%)
Alignment : Aligned on interleaves
Interleave, duration : 24 ms (0.58 video frame)
Interleave, preload duration : 521 ms
Writing library : LAME3.90.
Encoding settings : -m j -V 4 -q 2 -lowpass 18 --abr 160

Related Torrents

torrent name size files age seed leech

Sharing Widget


Download torrent
700.02 MB
seeders:0
leechers:0
Cougar Tales 5 XXX DVDRip XviD -Pr0nStarS

Trackers

tracker name Status checked seeders leechers downloads
http://tracker.ccc.de/announce
outdated 12 Oct 2012 - - -
http://pow7.com/announce
outdated 29 Sep 2012 - - -
http://tracker.istole.it/announce
outdated 29 Sep 2012 - - -
udp://tracker.publicbt.com:80/announce
outdated 29 Sep 2012 - - -
udp://tracker.istole.it:80/announce
outdated 29 Sep 2012 - - -
http://ipv4.tracker.harry.lu/announce
outdated 29 Sep 2012 - - -
http://tracker.istole.it:6969/announce
outdated 29 Sep 2012 - - -
http://tracker.publicbt.com/announce
deleted 29 Sep 2012 - - -
udp://tracker.ccc.de:80/announce
deleted 29 Sep 2012 - - -
udp://tracker.istole.it:6969/announce
pending 29 Sep 2012 0 0 0
ĀµTorrent compatible trackers list

Locations

name
KickassTorrents
Torrent hash: DB3C020015718B2FD8C6F6A1CD2343E3A9976BE4

All Comments

audio
0/10
video
0/10
please, leave only comments related to that torrent
or sign-in
Report a bug