Contraband 2012 CAM READNFO XviD AC3-26K

seeders: 89
leechers: 8
Added on Jan 15, 2012 by hail_alpha66.27K in Movies
Torrent verified. Downloaded 55,394 times.

Contraband 2012 CAM READNFO XviD AC3-26K (Size: 1.86 GB)
  Contraband 2012 CAM READNFO XviD AC3-26K.avi 1.83 GB
  Contraband 2012 CAM READNFO XviD AC3-26K.nfo 3.57 KB
  HDSceneRG.txt 115 bytes
  Torrent downloaded from Demonoid.me.txt 46 bytes
  att-networks.com.txt 39 bytes
  sample.avi 36.63 MB
  Sceneunderground.org.txt 77 bytes

Description

image

Contraband 2012 CAM READNFO XviD AC3-26K

Imdb:
http://www.imdb.com/title/tt1524137/

Plot:
To protect his brother-in-law from a drug lord, a former smuggler heads to Panama to score millions of dollars in counterfeit bills.

Sources:
VIDEO RUSSIAN- THNXS!!
THANKS "YOU KNOW WHO" FOR AUDIO- THNXS M8 AND THNXS LOGICURL FOR THE HELP IN THE SYNCING!

Notes:
WHY READNFO WELL THE AUDIO GIVEN WAS VERY BAD!! WHICH WAS CLEANED UP... THEN WENT AHEAD AND ENCODED THE VIDEO!! MADE IT LOOK NICE ADDED A FEW VIDEO/ COLOR FILTERS TO THE VIDEO...
THEN SYCNED THE AUDIO TO THE VIDEO.. IT TOOK US 34 CUTS TO GET IT ALL IN SYNC! SO FOR NOW ENJOY.. NEW SOURCE SOON :p

Greetz:
Xtreme Encode|FYA|ILLUMANTI|CM8|RX|VISION|HDSCENE|NIGHTMAREZ|xTriLL|DTRG|CRYS|REMIXHD|BIDA|RX|REFILL|INSPiRAL|SIC
To all the people who have helped me :P you know who you are

Anything to offer email us @: 26k@hushmail.me

Video
ID : 0
Format : MPEG-4 Visual
Format profile : Advanced Simple@L5
Format settings, BVOP : 2
Format settings, QPel : No
Format settings, GMC : No warppoints
Format settings, Matrix : Default (H.263)
Codec ID : XVID
Codec ID/Hint : XviD
Duration : 1h 43mn
Bit rate : 2 300 Kbps
Width : 720 pixels
Height : 304 pixels
Display aspect ratio : 2.35:1
Frame rate : 25.000 fps
Color space : YUV
Chroma subsampling : 4:2:0
Bit depth : 8 bits
Scan type : Progressive
Compression mode : Lossy
Bits/(Pixel*Frame) : 0.420
Stream size : 1.66 GiB (91%)
Writing library : XviD 63

Audio
ID : 1
Format : AC-3
Format/Info : Audio Coding 3
Mode extension : CM (complete main)
Codec ID : 2000
Duration : 1h 43mn
Bit rate mode : Constant
Bit rate : 224 Kbps
Channel(s) : 2 channels
Channel positions : Front: L R
Sampling rate : 44.1 KHz
Bit depth : 16 bits
Compression mode : Lossy
Stream size : 165 MiB (9%)
Alignment : Aligned on interleaves
Interleave, duration : 40 ms (1.00 video frame



Screens:
image
image
image
image
image
image


image
Thank you smallz for banner!

Related Torrents

torrent name size files age seed leech

Sharing Widget


Download torrent
1.86 GB
seeders:89
leechers:8
Contraband 2012 CAM READNFO XviD AC3-26K

Trackers

tracker name Status checked seeders leechers downloads
http://tracker.torrentbay.to:6969/announce
outdated 02 Dec 2012 - - -
http://inferno.demonoid.me:3414/announce
outdated 18 Nov 2012 - - -
http://secure.pow7.com/announce
outdated 09 May 2012 - - -
udp://tracker.1337x.org:80/announce
outdated 10 Mar 2012 - - -
udp://tracker.publicbt.com:80/announce
outdated 10 Mar 2012 - - -
udp://tracker.openbittorrent.com:80/announce
outdated 10 Mar 2012 - - -
http://tracker.openbittorrent.com/announce
outdated 10 Mar 2012 - - -
http://tracker.ex.ua/announce
outdated 10 Mar 2012 - - -
http://announce.torrentsmd.com:6969/announce
outdated 10 Mar 2012 - - -
http://cpleft.com:2710/announce
outdated 10 Mar 2012 - - -
http://exodus.desync.com:6969/announce
blocked 27 Aug 2012 - - -
http://fr33dom.h33t.com:3310/announce
deleted 20 May 2013 - - -
http://tracker.publicbt.com/announce
deleted 11 Mar 2013 - - -
http://tracker.novalayer.org:6969/announce
pending 10 Mar 2012 0 0 0
ĀµTorrent compatible trackers list

Locations

name
KickassTorrents
ThePirateBay
ExtraTorrent
Limetorrents
Torrent hash: 0233452D112E1AF0C4598DA20285E01C135BAC35

Top Comments

5
Mp3Dude553 • 18 Jan 2012, 23:38
torrent downloaded
audio: 5video: 4
people walking infront camrea and cuts off the heads afew times and falls down
wait for a better

All Comments

audio
4/10
video
5/10
please, leave only comments related to that torrent
or sign-in
0
acapainter2662 • 11 September 2012, 05:47
torrent downloaded
Show comment
audio: 5video: 7
excellent, good torrent
0
tbhkman1552 • 04 September 2012, 12:39
torrent downloaded
Show comment
audio: 4video: 4
0
jaybobkenedy5205 • 16 August 2012, 15:20
torrent downloaded
Show comment
audio: 4video: 5
THANKS MAN
0
hstaubyn12 • 19 July 2012, 21:55 Show comment
audio: 4video: 5
0
hstaubyn12 • 19 July 2012, 21:55 Show comment
Pretty poor copy - video is at an angle, you can see the edge of the screen and hear people moving about/coughing etc. There is also an overlay of static noise.
Thanks though!
0
anonymous • 13 July 2012, 12:53 Show comment
audio: 4video: 5
Make money easily with sharing files !!!
http://zo.mu/AU6
0
Tuklu9900 • 06 July 2012, 11:43
torrent downloaded
Show comment
audio: 5video: 5
0
130131342005 • 06 June 2012, 19:19 Show comment
Thanks For Uploader :)
Show More

User Opinions

q8djent5240, TeGiiGii4476, Fireman58444470, R.D.Winters4378, bustnbronco3445, Alrhino816, marcelsimion45727, steveo77276, bubba5754, vanviamic6 ... And 162 more
Sange2254, tbhkman1552, tictoc1184, hothot562, thadeus p.404, prasurocks168, vogel_10184, SundaysFavourites37, nosyfaly32, FlaviusRusnak14 ... And 51 more
Report a bug