Contagion 2011 TS XVID AC3-TRiNiTY

seeders: 1
leechers: 0
Added on Oct 24, 2011 in Movies
Torrent verified. Downloaded 0 times.

Contagion 2011 TS XVID AC3-TRiNiTY (Size: 1.65 GB)
  Allycat TRINITY.nfo 3.28 KB
  Contagion 2011 TS XVID AC3-TRiNiTY.avi 1.65 GB
  READ this before playing the Movie.txt 473 bytes
  www.Torrenting.com.txt 473 bytes

Description

.

http://www.torrenting.com : Once & For all ;)


www . Torrenting . Com

(((((((((((((= Enjoy No RAR releases =))))))))))))))))))))


...................................NFO:....................................

.
ooooooooooooo ooooooooo. o8o ooooo ooo o8o ooooooooooooo oooooo oooo
8' 888 `8 `888 `Y88. `"' `888b. `8' `"' 8' 888 `8 `888. .8'
888 888 .d88' oooo 8 `88b. 8 oooo 888 `888. .8'
888 888ooo88P' `888 8 `88b. 8 `888 888 `888.8'
888 888`88b. 888 8 `88b.8 888 888 `888'
888 888 `88b. 888 8 `888 888 888 888
o888o o888o o888o o888o o8o `8 o888o o888o o888o
___________ ______
______ ___ /__ /____ _____________ __ /
_ __ `/_ /__ /__ / / / ___/ __ `/ __/
/ /_/ /_ / _ / _ /_/ // /__ / /_/ // /
\__,_/ /_/ /_/ _\__, / \___/ \__,_/ \__/
/____/








EnCoDer:Allycat



General
Complete name : Contagion 2011 TS XVID AC3-TRiNiTY.avi
Format : AVI
Format/Info : Audio Video Interleave
File size : 1.65 GiB
Duration : 1h 41mn
Overall bit rate : 2 334 Kbps
Writing library : VirtualDub build 30091/release

Video
ID : 0
Format : MPEG-4 Visual
Format profile : Advanced Simple@L5
Format settings, BVOP : 1
Format settings, QPel : No
Format settings, GMC : No warppoints
Format settings, Matrix : Default (H.263)
Muxing mode : Packed bitstream
Codec ID : XVID
Codec ID/Hint : XviD
Duration : 1h 41mn
Bit rate : 1 877 Kbps
Width : 720 pixels
Height : 352 pixels
Display aspect ratio : 2.045
Frame rate : 25.000 fps
Color space : YUV
Chroma subsampling : 4:2:0
Bit depth : 8 bits
Scan type : Progressive
Compression mode : Lossy
Bits/(Pixel*Frame) : 0.296
Stream size : 1.33 GiB (80%)
Writing library : XviD 1.2.1 (UTC 2008-12-04)

Audio
ID : 1
Format : AC-3
Format/Info : Audio Coding 3
Mode extension : CM (complete main)
Codec ID : 2000
Duration : 1h 41mn
Bit rate mode : Constant
Bit rate : 448 Kbps
Channel(s) : 2 channels
Channel positions : Front: L R
Sampling rate : 48.0 KHz
Bit depth : 16 bits
Compression mode : Lossy
Stream size : 325 MiB (19%)
Alignment : Aligned on interleaves
Interleave, duration : 40 ms (1.00 video frame)
Interleave, preload duration : 512 ms

Related Torrents

torrent name size files age seed leech

Sharing Widget


Download torrent
1.65 GB
seeders:1
leechers:0
Contagion 2011 TS XVID AC3-TRiNiTY

Trackers

tracker name Status checked seeders leechers downloads
udp://tracker.publicbt.com:80/announce
outdated 24 Oct 2011 - - -
http://tracker.openbittorrent.com/announce
outdated 24 Oct 2011 - - -
udp://tracker.openbittorrent.com:80/announce
outdated 24 Oct 2011 - - -
http://exodus.desync.com:6969/announce
blocked 19 Aug 2012 - - -
http://tracker.publicbt.com/announce
deleted 11 Mar 2013 - - -
µTorrent compatible trackers list

Locations

name
ThePirateBay
Limetorrents
Torrent hash: c84fb43703eff2f3b986afba66f186f59fa07cc0

All Comments

audio
5/10
video
4/10
please, leave only comments related to that torrent
or sign-in
0
bensimpson106 • 17 December 2011, 16:33
torrent downloaded
Show comment
audio: 5video: 1
0
slebreton716 • 08 November 2011, 01:05
torrent downloaded
Show comment
audio: 7video: 7
0
WalnutWill2607 • 24 October 2011, 19:06
torrent downloaded
Show comment
audio: 5video: 4

User Opinions

Report a bug