Colombiana 2011 TS READNFO XViD - IMAGiNE

seeders: 0
leechers: 0
Added on Aug 29, 2011 in Movies
Torrent verified. Downloaded 0 times.

Colombiana 2011 TS READNFO XViD - IMAGiNE (Size: 1.39 GB)
  col-img.rar 14.31 MB
  col-img.rar 14.31 MB
  col-img.rar 14.31 MB
  col-img.rar 14.31 MB
  col-img.rar 14.31 MB
  col-img.rar 14.31 MB
  col-img.rar 14.31 MB
  col-img.rar 14.31 MB
  col-img.rar 14.31 MB
  col-img.rar 14.31 MB
  col-img.rar 14.31 MB
  col-img.rar 14.31 MB
  col-img.rar 14.31 MB
  col-img.rar 14.31 MB
  col-img.rar 14.31 MB
  col-img.rar 14.31 MB
  col-img.rar 14.31 MB
  col-img.rar 14.31 MB
  col-img.rar 14.31 MB
  col-img.rar 14.31 MB
  col-img.rar 14.31 MB
  col-img.rar 14.31 MB
  col-img.rar 14.31 MB
  col-img.rar 14.31 MB
  col-img.rar 14.31 MB
  col-img.rar 14.31 MB
  col-img.rar 14.31 MB
  col-img.rar 14.31 MB
  col-img.rar 14.31 MB
  col-img.rar 14.31 MB
  And 73 files more

Description

.

http://www.scenetime.com - Hottest private tracker on the net. !!!

Sign up will close shortly !! Join now

Seed back for speed


...................................NFO:.................................................

[pre]ooooo ooo ooooo .o. .oooooo. o8o ooooo ooo oooooooooooo

888' `88. .888' .888. d8P' `Y8b `"' `888b. `8' `888' `8

888 888b d'888 .8"888. 888 oooo 8 `88b. 8 888

888 8 Y88. .P 888 .8' `888. 888 `888 8 `88b. 8 888oooo8

888 8 `888' 888 .88ooo8888. 888 ooooo 888 8 `88b.8 888 "

888 8 Y 888 .8' `888. `88. .88' 888 8 `888 888 o

o888o o8o o888o o88o o8888o `Y8bood8P' o888o o8o `8 o888ooooood8









Another Fine Release Brought to you from - IMAGiNE





******************************************************************************************

Colombiana 2011 TS READNFO XViD - IMAGiNE

******************************************************************************************



Ripper ...........: IMAGiNE IMDB Rating.......: 5.6/10

Video Codec.......: XViD Release Date......: 29/08/11

Audio Codec.......: MP3 Theatre Date......: 26/08/11

Audio Bitrate.....: 128 Runtime...........: 1h 43mn

Subtitles.........: NIL Language..........: ENGLISH

Resolution........: 640 x 288 IMDb URL..........: http://www.imdb.com/title/tt1657507/





DETAILS:



Video
ID : 0
Format : MPEG-4 Visual
Format profile : Advanced Simple@L5
Format settings, BVOP : Yes
Format settings, QPel : No
Format settings, GMC : No warppoints
Format settings, Matrix : Default (MPEG)
Muxing mode : Packed bitstream
Codec ID : XVID
Codec ID/Hint : XviD
Duration : 1h 43mn
Bit rate : 1 749 Kbps
Width : 640 pixels
Height : 288 pixels
Display aspect ratio : 2.222
Frame rate : 29.970 fps
Resolution : 24 bits
Colorimetry : 4:2:0
Scan type : Progressive
Bits/(Pixel*Frame) : 0.317
Stream size : 1.27 GiB (93%)
Writing library : XviD 64

Audio
Format : MPEG Audio
Format version : Version 1
Format profile : Layer 3
Duration : 1h 43mn
Bit rate mode : Constant
Bit rate : 128 Kbps
Channel(s) : 2 channels
Sampling rate : 44.1 KHz
Resolution : 16 bits
Stream size : 95.2 MiB (100%)



SOURCES:



VIDEO: ............ Colombiana - Cam - 2011 - HP

AUDIO: ............ Colombiana LINE Thanks Mate :D



NOTES:

Ok heres our TS version.....same video source as before but cleaned differently.
Audio was sent to us but believe our supplier sent the audio also so a "friend" who passed it
onto to CM8 grp.....so same source.
Right video we went back to the drawing board and encoded again with different filters etc ....
This time round we cropped borders,resized and used a smoother to clean the video up.Also made it brighter
and lowered the chroma as it was too overpowering.
Audio we have to cut and stretch to sync as the video is missing roughly 14 secs ....two lots of 7 secs.
We've also remastered the audio source we were given and cleaned it up nicely and them change the EQ settings.

Now the video is pretty good in dark and light scenes....the issue is the colouring changes slightly throughout.
Audio is very nice line.
Oh and yes all videos will be missing these secs until a new source comes along :P





SCREENS:



image

image

image

image
image
image





GREETS:



FLAWL3SS,KINOPARK,Rx,ELEKTRI4KA,ADDiCTED,Autotron,CiNEDUB,

And to all the other p2p grps past and present



[COLOR=RED]Looking for these,syncers,cammers,audio,silver supplier.....Have anything to offer????......

Contact us imaginegroup@hushmail.com[/pre]

Related Torrents

torrent name size files age seed leech

Sharing Widget


Download torrent
1.39 GB
seeders:0
leechers:0
Colombiana 2011 TS READNFO XViD - IMAGiNE

Trackers

tracker name Status checked seeders leechers downloads
udp://tracker.publicbt.com:80/announce
outdated 29 Aug 2011 - - -
http://tracker.openbittorrent.com/announce
outdated 29 Aug 2011 - - -
udp://tracker.openbittorrent.com:80/announce
outdated 29 Aug 2011 - - -
http://tracker.publicbt.com/announce
deleted 29 Aug 2011 - - -
ĀµTorrent compatible trackers list

Locations

name
ThePirateBay
Limetorrents
Torrent hash: 4843721c1702e61a9932149798f95be6b6895860

All Comments

audio
0/10
video
0/10
please, leave only comments related to that torrent
or sign-in
Report a bug