Clash of the Titans (2010) DVDRip XviD-MAXSPEED

seeders: 17
leechers: 5
Added on Jul 8, 2010 by piratepedia684.78K in Movies
Torrent verified. Downloaded 10 times.

Clash of the Titans (2010) DVDRip XviD-MAXSPEED (Size: 1.27 GB)
  Clash of the Titans (2010) DVDRip XviD-MAXSPEED www.torentz.3xforum.ro.avi 1.27 GB
  screencaps.jpg 208 KB
  Clash of the Titans (2010) DVDRip XviD-MAXSPEED.nfo 2.52 KB
  Torrent downloaded from Demonoid.com.txt 47 bytes
  Torrent verified and recommended by vertor.com.txt 46 bytes
  Torrent downloaded from Rarbg.com.txt 33 bytes
  tracked_by_h33t_com.txt 23 bytes

Description


image

Screens:

image
image
image
image
image

Alternative:

http://www.postimg.com/image/18000/17569.jpg 
http://www.postimg.com/image/18000/17570.jpg
http://www.postimg.com/image/18000/17571.jpg
http://www.postimg.com/image/18000/17572.jpg
http://www.postimg.com/image/18000/17573.jpg

ScreenCaps:
image

Format : AVI
Format/Info : Audio Video Interleave
Format profile : OpenDML
File size : 1.26 GiB
Duration : 1h 46mn
Overall bit rate : 1 707 Kbps
Writing application : VirtualDubMod 1.5.10.2 (build 2542/release)
Writing library : VirtualDubMod build 2542/release
Original source form : MAX TORRENTZ
Copyright : SIGISMUNT

Video
ID : 0
Format : MPEG-4 Visual
Format profile : E-mail
Format settings, BVOP : Yes
Format settings, QPel : No
Format settings, GMC : No warppoints
Format settings, Matrix : Custom
Muxing mode : Packed bitstream
Codec ID : XVID
Codec ID/Hint : XviD
Duration : 1h 46mn
Bit rate : 1 512 Kbps
Width : 720 pixels
Height : 304 pixels
Display aspect ratio : 2.35:1
Frame rate : 23.976 fps
Resolution : 24 bits
Colorimetry : 4:2:0
Scan type : Progressive
Bits/(Pixel*Frame) : 0.288
Stream size : 1.12 GiB (89%)
Writing library : XviD 1.2.1 (UTC 2008-12-04)

Audio
ID : 1
Format : MPEG Audio
Format version : Version 1
Format profile : Layer 3
Codec ID : 55
Codec ID/Hint : MP3
Duration : 1h 46mn
Bit rate mode : Constant
Bit rate : 192 Kbps
Channel(s) : 2 channels
Sampling rate : 48.0 KHz
Resolution : 16 bits
Stream size : 146 MiB (11%)
Alignment : Aligned on interleaves
Interleave, duration : 500 ms 

Source: 720p Bluray


How To Get Your Maxspeed (uTorrent)

Torrent Client - Preferences - Bandwidth - Number of connections - Set aprox. 500 for each 
Torrent Client - Preferences - BiTorrent - Protocol Encryption - Forced
Bandwidth Allocation - High (Set download/upload limit - Unlimited)
Stop Other Active Torrents - Start downloading and wait for connections
Enjoy and Seed for at least 1:1 ratio. Don't forget to say thanks/leave reviews.
Also please spread the link where you found this torrent to your friends.
Don't trust IMDb robot or bad ratings,always watch some trailers first.
Ignore online streaming spam sites and fake stupid uploads/comments.
If you need translation subs visit some subtitles sites.
Recommended movie player VLC PLAYER.


http://www.torentz.3xforum.ro/post/1513/1/Clash_of_the_Titans_2010_DVDRip_XviD-MAXSPEED/

Sharing Widget


Download torrent
1.27 GB
seeders:17
leechers:5
Clash of the Titans (2010) DVDRip XviD-MAXSPEED

Trackers

tracker name Status checked seeders leechers downloads
udp://tracker.istole.it:80/announce
outdated 25 Apr 2014 - - -
udp://tracker.openbittorrent.com:80/announce
outdated 25 Apr 2014 - - -
udp://tracker.publicbt.com:80/announce
outdated 25 Apr 2014 - - -
udp://tracker.1337x.org:80/announce
outdated 31 Jul 2013 - - -
http://exodus.desync.com:6969/announce
blocked 31 Jul 2013 - - -
udp://tracker.ccc.de:80/announce
deleted 31 Jul 2013 - - -
udp://fr33domtracker.h33t.com:3310/announce
deleted 31 Jul 2013 - - -
µTorrent compatible trackers list

Locations

name
KickassTorrents
Limetorrents
1337x
ExtraTorrent
BTjunkie
Torrent hash: a2d24eb63312d63359d02af09817fc1703c28c4a

Top Comments

5
zeeplax6 • 07 Sep 2011, 08:39
torrent downloaded
Great Movie .. I like It
tahnx for uploader .. and keep seed

All Comments

audio
9/10
video
9/10
please, leave only comments related to that torrent
or sign-in
0
J_Aaron892377 • 13 December 2013, 07:49
torrent downloaded
Show comment
audio: 9video: 9
Thanks
0
a0b10c11029.7K • 17 November 2013, 09:37 Show comment
fast download, OK, thanks to the up loader
0
muppet_slayer1080 • 13 September 2013, 05:01
torrent downloaded
Show comment
audio: 10video: 10
Beautiful copy and fast DL. I will seed for as long as I can. Thanks a lot uploader, much appreciated.
0
lord_wicked2203 • 26 July 2013, 18:28
torrent downloaded
Show comment
audio: 9video: 9
thx
0
The.UnKnOWn1435 • 21 July 2013, 17:10
torrent downloaded
Show comment
audio: 8video: 8
Good quality & Great movie ....
Thanks for uploading mate smile
0
anonymous • 19 January 2013, 03:15 Show comment
Awesome. Thank you loads keep up the good work x
0
Allex_king451 • 03 January 2013, 05:32
torrent downloaded
Show comment
audio: 9video: 9
Thx...
0
JSW8169 • 02 January 2013, 19:59
torrent downloaded
Show comment
great copy and good dl
0
anonymous • 24 December 2012, 03:54 Show comment
tnanks ! great copy good job :)
Show More

User Opinions

q8djent5256, markozlatni1300, toxictoadz1243, pvfctid909, Winree467, Misssara197, archer900061, iGoTaFeeLing15, zeeplax6, bogbot722 ... And 894 more
bobnjeff5586, pepsiking3038, batmanmustdie314, xxrevxx96, sunespeedtsberg71, badmann51, darkwars36, markus566, suzy064, richj4 ... And 22 more
Report a bug