Cherry Bomb 2011 DVDRiP AC3-5 1 XviD-AXED

seeders: 3
leechers: 0
Added on Jun 26, 2012 by juggs344.77K in Movies
Torrent verified. Downloaded 10 times.

Cherry Bomb 2011 DVDRiP AC3-5 1 XviD-AXED (Size: 1.39 GB)
  Cherry.Bomb.2011.DVDRiP.AC3-5.1.XviD-AXED.avi 1.37 GB
  Cherry.Bomb.2011.DVDRiP.AC3-5.1.XviD-AXED.nfo 3.86 KB
  sample.avi 20.58 MB
  Torrent downloaded from Extratorrent.com (2).txt 339 bytes

Description


IMDB:
http://www.imdb.com/title/tt1606189/

PLOT INFO:
In homage to the action films of the early 1980s, the beautiful Cherry is an exotic dancer who is attacked by a group of sleazy men in the club where she works. The men escape justice and she vows revenge by killing them off one by one. Things start to spiral out of control when a mysterious hit man named Bull is hired to put an end to Cherry's bloody tirade. She soon realizes that there is more at stake than she everimagined

General
Complete name: Cherry.Bomb.2011.DVDRiP.AC3-5.1.XviD-AXED.avi
Format: AVI
Format/Info: Audio Video Interleave
File size: 1.37 GiB
Duration: 1h 22mn
Overall bit rate: 2 393 Kbps

Video
ID: 0
Format: MPEG-4 Visual
Format profile: Advanced Simple@L5
Format settings, BVOP: 1
Format settings, QPel: No
Format settings, GMC: No warppoints
Format settings, Matrix: Default (H.263)
Codec ID: XVID
Codec ID/Hint: XviD
Duration: 1h 22mn
Bit rate: 1 938 Kbps
Width: 720 pixels
Height: 304 pixels
Display aspect ratio: 2.35:1
Frame rate: 23.976 fps
Color space: YUV
Chroma subsampling: 4:2:0
Bit depth: 8 bits
Scan type: Progressive
Compression mode: Lossy
Bits/(Pixel*Frame): 0.369
Stream size: 1.11 GiB (81%)
Writing library: XviD 1.2.1 (UTC 2008-12-04)

Audio
ID: 1
Format: AC-3
Format/Info: Audio Coding 3
Mode extension: CM (complete main)
Codec ID: 2000
Duration: 1h 22mn
Bit rate mode: Constant
Bit rate: 448 Kbps
Channel(s): 6 channels
Channel positions: Front: L C R, Side: L R, LFE
Sampling rate: 48.0 KHz
Bit depth: 16 bits
Compression mode: Lossy
Stream size: 263 MiB (19%)
Alignment: Aligned on interleaves
Interleave, duration: 64 ms (1.53 video frames)
Interleave, preload duration: 192 ms
Title: VTS_01_1 T80 3_2ch 448Kbps DELAY 0ms

SOURCE:
Retail DVD

NOTES:
I feel sorry for people that need movies marketed to them by MTV. Think for yourselves for a change, and get some culture in you

AXED! We do this better

Related Torrents

torrent name size files age seed leech

Sharing Widget


Download torrent
1.39 GB
seeders:3
leechers:0
Cherry Bomb 2011 DVDRiP AC3-5 1 XviD-AXED

Trackers

tracker name Status checked seeders leechers downloads
udp://tracker.openbittorrent.com:80/announce
outdated 11 Apr 2014 - - -
udp://tracker.publicbt.com:80/announce
outdated 11 Apr 2014 - - -
udp://tracker.istole.it:80/announce
outdated 11 Apr 2014 - - -
udp://tracker.1337x.org:80/announce
outdated 12 Feb 2013 - - -
http://exodus.desync.com:6969/announce
blocked 12 Feb 2013 - - -
udp://fr33domtracker.h33t.com:3310/announce
deleted 12 Feb 2013 - - -
ĀµTorrent compatible trackers list

Locations

name
KickassTorrents
Torrent hash: 689969297FC4CAF75CFACB5F15FFBB806424F37A

All Comments

audio
8/10
video
8/10
please, leave only comments related to that torrent
or sign-in
0
Sbyky22.01K • 17 May 2013, 15:21
torrent downloaded
Show comment
audio: 9video: 9
thanks juggs, interesting movie
0
howie3851309 • 17 November 2012, 21:25
torrent downloaded
Show comment
audio: 8video: 8
thanks
0
ivory12188888 • 12 September 2012, 00:27
torrent downloaded
Show comment
audio: 8video: 9
Thanks for the upload!
0
QMurk2039 • 21 August 2012, 22:30
torrent downloaded
Show comment
CLEAR DL
0
JLOPEZWV250 • 27 July 2012, 20:09
torrent downloaded
Show comment
audio: 10video: 10
Good
0
electsub2399 • 21 July 2012, 06:08
torrent downloaded
Show comment
audio: 8video: 8
0
romeok20183 • 18 July 2012, 07:33
torrent downloaded
Show comment
quality's good, movies not, but thanks uploader
0
jasko1121325 • 17 July 2012, 15:02
torrent downloaded
Show comment
audio: 9video: 9
0
Glaber700 • 17 July 2012, 08:26
torrent downloaded
Show comment
audio: 10video: 10
Nice
Thanks
0
Madrush3041 • 17 July 2012, 08:02
torrent downloaded
Show comment
audio: 8video: 8
thanks
Show More

User Opinions

aceseven14.37K, Fireman58444474, DjKimoni3869, Negenius3347, Ha_Nif2939, OnceAThief1326, TheThirdMark1097, jasppunk909, bosslove72407, Guinness213370 ... And 165 more
oosieredsox4353, bob19902439, electsub2399, Ronidee1021, hardheaded1800, 1berto730, moc695, didi!234185, charlymaya157, nzora79121 ... And 15 more
Report a bug