Charlies Angels

seeders: 0
leechers: 1
Added on Mar 18, 2010 in Movies
Torrent verified. Downloaded 9 times.

Charlies Angels (Size: 481.63 MB)
  Charlie's Angels.avi 481.63 MB
  Charlie's Angels.txt 3 KB

Description


Charlie's private investigation company is addressed by programmer Eric Knox, owner of Knox Technologies, whose revolutionary voice-recognition software has been stolen. Charlie's Angels Natalie, Dylan and Alex are sent to place a bug in the system of bitter rival Roger Corwin, who is under strong suspicion. But after the deed is done, the Angels and their boss Bosley face the fact of a destroyed home base as well as Charlie's life in immediate danger. But how do you protect someone you never met?





Format : AVI

Format/Info : Audio Video Interleave

File size : 482 MiB

Duration : 1h 34mn

Overall bit rate : 713 Kbps

Writing application : MEncoder SVN-r29318(20090522-gcc4.3.3)

Writing library : MPlayer



Video

ID : 0

Format : AVC

Format/Info : Advanced Video Codec

Format profile : Main@L3.0

Format settings, CABAC : Yes

Format settings, ReFrames : 1 frame

Codec ID : h264

Duration : 1h 34mn

Bit rate : 573 Kbps

Nominal bit rate : 576 Kbps

Width : 480 pixels

Height : 360 pixels

Display aspect ratio : 4:3

Frame rate : 25.000 fps

Resolution : 8 bits

Colorimetry : 4:2:0

Scan type : Progressive

Bits/(Pixel*Frame) : 0.133

Stream size : 387 MiB (80%)

Writing library : x264 core 67 r1154+12 7c56c0f

Encoding settings : cabac=1 / ref=1 / deblock=1:0:0 / analyse=0x1:0x111 / me=hex / subme=6 / psy_rd=1.0:0.0 / mixed_ref=0 / me_range=16 / chroma_me=1 / trellis=0 / 8x8dct=0 / cqm=0 / deadzone=21,11 / chroma_qp_offset=-2 / threads=6 / nr=0 / decimate=1 / mbaff=0 / bframes=0 / keyint=250 / keyint_min=25 / scenecut=40 / rc=abr / bitrate=576 / ratetol=1.0 / qcomp=0.60 / qpmin=10 / qpmax=51 / qpstep=4 / ip_ratio=1.40 / aq=1:1.00



Audio

ID : 1

Format : MPEG Audio

Format version : Version 1

Format profile : Layer 3

Mode : Joint stereo

Format_Settings_ModeExtension : MS Stereo

Codec ID : 55

Codec ID/Hint : MP3

Duration : 1h 34mn

Bit rate mode : Constant

Bit rate : 128 Kbps

Channel(s) : 2 channels

Sampling rate : 44.1 KHz

Stream size : 86.4 MiB (18%)

Alignment : Aligned on interleaves

Interleave, duration : 26 ms (0.65 video frame)

Interleave, preload duration : 522 ms

Writing library : LAME3.98






Related Torrents

torrent name size files age seed leech

Sharing Widget


Download torrent
481.63 MB
seeders:0
leechers:1
Charlies Angels

Trackers

tracker name Status checked seeders leechers downloads
http://tracker.openbittorrent.com/announce
outdated 13 May 2010 - - -
udp://tracker.publicbt.com:80/announce
outdated 18 Mar 2010 - - -
udp://tracker.openbittorrent.com:80/announce
outdated 18 Mar 2010 - - -
http://tracker.publicbt.com/announce
deleted 18 Aug 2011 - - -
ĀµTorrent compatible trackers list

Locations

name
1337x
Torrent hash: 3f753d0bbca7d1b886e5088d1aedc1a5298dd3d3

All Comments

audio
0/10
video
0/10
please, leave only comments related to that torrent
or sign-in
0
anonymous • 23 July 2010, 17:02 Show comment
This has a commentary over the movie. That sucks For watching a movie because you can't turn it off.
Report a bug