Burden of Evil 2012 VODRIP XviD Feel-Free

seeders: 8
leechers: 3
Added on Apr 7, 2012 by feel-free20.08K in Movies
Torrent verified. Downloaded 6,132 times.

Summary:
No summary yet
Burden of Evil 2012 VODRIP XviD Feel-Free (Size: 970.64 MB)
  Burden.of.Evil.2012.VODRIP.XviD.Feel-Free.avi 969.25 MB
  Burden.of.Evil.2012.VODRIP.XviD.Feel-Free.nfo 3.44 KB
  TMN_Burden_Of_Evil_Va_W_Poster.jpg 175.89 KB
  Torrent downloaded from extratorrent.com.txt 171 bytes
  vlcsnap-2012-04-07-21h21m09s226.png 232.31 KB
  vlcsnap-2012-04-07-21h21m54s167.png 321.34 KB
  vlcsnap-2012-04-07-21h22m03s3.png 377.81 KB
  vlcsnap-2012-04-07-21h22m11s71.png 312.17 KB

Description

image
image



Genre:Thriller
Language:English
IMDb:http://www.imdb.com/title/tt2226309/
Source:NoGRP Thanks!
Encoder:Tony

Format : AVI
Format/Info : Audio Video Interleave
File size : 969 MiB
Duration : 1h 30mn
Overall bit rate mode : Variable
Overall bit rate : 1 504 Kbps

Video
ID : 0
Format : MPEG-4 Visual
Format profile : Advanced Simple@L5
Format settings, BVOP : 2
Format settings, QPel : No
Format settings, GMC : No warppoints
Format settings, Matrix : Default (H.263)
Muxing mode : Packed bitstream
Codec ID : XVID
Codec ID/Hint : XviD
Duration : 1h 30mn
Bit rate : 1 368 Kbps
Width : 720 pixels
Height : 384 pixels
Display aspect ratio : 1.875
Frame rate : 30.000 fps
Color space : YUV
Chroma subsampling : 4:2:0
Bit depth : 8 bits
Scan type : Progressive
Compression mode : Lossy
Bits/(Pixel*Frame) : 0.165
Stream size : 882 MiB (91%)
Writing library : XviD 62

Audio
ID : 1
Format : MPEG Audio
Format version : Version 1
Format profile : Layer 3
Mode : Joint stereo
Mode extension : MS Stereo
Codec ID : 55
Codec ID/Hint : MP3
Duration : 1h 30mn
Bit rate mode : Variable
Bit rate : 122 Kbps
Channel(s) : 2 channels
Sampling rate : 44.1 KHz
Compression mode : Lossy
Stream size : 78.7 MiB (8%)
Alignment : Aligned on interleaves
Interleave, duration : 26 ms (0.78 video frame)
Interleave, preload duration : 567 ms


Plot:
When the daughter of a powerful senator is kidnapped by a psychopath, the senator requests a particular homicide detective..

image
image
image
image

Greets:
CRYS,INSPiRAL,IMAGINE,LKRG,ADTRG,FXG,3Li,FLAWL3SS,TA,iLLUSiON,EMBER,HOPE,GooN,BBnRG,NOGRP,ETRG,BHRG,iLLUMiNATi,MiSTERE.ViSiON,DTRG SAFCuk009,LU,TheFalcon007,MYSTiC,PrisM,Noir,WBZ,LAP,Rx,Kingdom,SAFCuk009+Fabreezy,HDLiTE,TWiZTED,ETRG.ELEKTRI4KA,MAGNAT,CM8
And to all the other p2p grps past and present

Make sure its a real Feel-Free release @ http://extratorrent.com

Thanks to all who promotes release Feel-Free !!!

Sharing Widget


Download torrent
970.64 MB
seeders:8
leechers:3
Burden of Evil 2012 VODRIP XviD Feel-Free

Trackers

tracker name Status checked seeders leechers downloads
http://tracker.istole.it/announce
outdated 24 Apr 2012 - - -
udp://tracker.istole.it:80/announce
outdated 24 Apr 2012 - - -
udp://tracker.publicbt.com:80/announce
outdated 24 Apr 2012 - - -
udp://tracker.1337x.org:80/announce
outdated 24 Apr 2012 - - -
udp://tracker.openbittorrent.com:80/announce
outdated 24 Apr 2012 - - -
http://exodus.desync.com:6969/announce
blocked 19 Aug 2012 - - -
http://fr33dom.h33t.com:3310/announce
deleted 17 May 2013 - - -
http://tracker.publicbt.com/announce
deleted 11 Mar 2013 - - -
ĀµTorrent compatible trackers list

Locations

name
KickassTorrents
Torrent hash: FA63BA7BF9AEE9AF69D68619F8C60E0E20414D6F

All Comments

audio
9/10
video
9/10
please, leave only comments related to that torrent
or sign-in
0
PhantasmWizard5784 • 11 April 2012, 22:17
torrent downloaded
Show comment
audio: 9video: 9
Great job,, Thanks UL.
0
ScallyScouser66.97K • 10 April 2012, 23:22
torrent downloaded
Show comment
audio: 10video: 10
Excellent copy thanks for the up

User Opinions

ScallyScouser66.97K, PhantasmWizard5784, cjs0_01611, m49musicman1447, otisbit1194, Carina871135, bmaceffect494, rothmans480, MsBossLady226, buddareal124 ... And 6 more
Report a bug