Britney Spears - Toxic Uncut -2010(HQ.mkv

seeders: 0
leechers: 0
Added on Apr 3, 2010 in Movies
Downloaded 0 times.

Cast: Britney Spears and others
Britney Spears - Toxic Uncut -2010(HQ.mkv (Size: 21.43 MB)
  Britney Spears - Toxic Uncut -2010(HQ).mkv 21.43 MB

Description

Toxic Uncut -2010(HQ) .mkv
Format : Matroska
File size : 21.4 MiB
Duration : 3mn 11s
Overall bit rate : 939 Kbps
Video #1
ID : 1
Format : AVC
Format/Info : Advanced Video Codec
Format profile : Main@L3.0
Format settings, CABAC : Yes
Format settings, ReFrames : 2 frames
Muxing mode : Container profile=Unknown@3.0
Codec ID : V_MPEG4/ISO/AVC
Duration : 3mn 11s
Bit rate : 793 Kbps
Nominal bit rate : 800 Kbps
Width : 672 pixels
Height : 384 pixels
Display aspect ratio : 16/9
Frame rate : 29.970 fps
Resolution : 24 bits
Colorimetry : 4:2:0
Scan type : Progressive
Bits/(Pixel*Frame) : 0.102
Stream size : 18.1 MiB (84%)
Writing library : x264 core 79
Audio #2
ID : 2
Format : Vorbis
Format settings, Floor : 1
Codec ID : A_VORBIS
Duration : 3mn 11s
Bit rate mode : Constant
Bit rate : 128 Kbps
Channel(s) : 2 channels
Sampling rate : 44.1 KHz
Stream size : 2.92 MiB (14%)
Writing library : aoTuV Beta 5 (UTC 2006-10-24)
by djamirku

Related Torrents

torrent name size files age seed leech

Sharing Widget


Download torrent
21.43 MB
seeders:0
leechers:0
Britney Spears - Toxic Uncut -2010(HQ.mkv

Trackers

tracker name Status checked seeders leechers downloads
udp://tracker.openbittorrent.com:80/announce
active 04 Aug 2014 0 0 0
udp://tracker.publicbt.com:80/announce
active 04 Aug 2014 0 0 0
http://tracker.openbittorrent.com/announce
outdated 14 Sep 2010 - - -
http://tracker.publicbt.com/announce
deleted 11 Mar 2013 - - -
ĀµTorrent compatible trackers list

Locations

name
ThePirateBay
Torrent hash: d0479f09ee8dc0bb7ab7bfe0ec9460d07f999d87

All Comments

audio
6/10
video
5/10
please, leave only comments related to that torrent
or sign-in
0
The D3bugg3R331 • 06 August 2011, 13:07
torrent downloaded
Show comment
audio: 9video: 7
Excellent quality video.
0
anonymous • 02 February 2011, 17:54 Show comment
audio: 3video: 3
1
anonymous • 02 February 2011, 17:54 Show comment
why subtitle is there
0
The D3bugg3R331 • 06 August 2011, 13:08
torrent downloaded
Show comment
They ain't no subtitles bro, the characters are actually saving her nipples from being visible.
0
stewy178471 • 09 September 2010, 07:58
torrent downloaded
Show comment
audio: 6video: 6
Uncut?

User Opinions

Report a bug