Born to Race.2011.DvDRip.XviD.Ac3.Feel-Free

seeders: 3
leechers: 1
Added on Sep 16, 2011 by feel-free20.09K in Movies
Torrent verified. Downloaded 369 times.

Summary:
Born To Race is the story of Danny Krueger, a rebellious young street racer on a collision course with trouble. After an accident at an illegal street race, he is sent to a small town to live with his estranged father, a washed up NASCAR racer. When Danny decides to enter the NHRA High School Drags, he's forced to seek his father's help in taking down the local hot shot.
Submitted by xDominicx105.78K
report summary
Available in versions: 720pHDRiPDVDDVDRip
Born to Race.2011.DvDRip.XviD.Ac3.Feel-Free (Size: 1.05 GB)
  Born to Race.2011.DvDRip.XviD.Ac3 2.98 KB
  Born to Race.2011.DvDRip.XviD.Ac3.Feel-Free.avi 1.05 GB
  Born to Race.2011.jpg 186.25 KB
  Torrent downloaded from extratorrent.com.txt 171 bytes
  vlcsnap-00001.png 133.65 KB
  vlcsnap-00002.png 188.98 KB
  vlcsnap-00003.png 217.21 KB
  vlcsnap-00004.png 229.51 KB
  vlcsnap-00005.png 210.67 KB
  vlcsnap-00006.png 171.19 KB
  vlcsnap-00007.png 221.18 KB
  vlcsnap-00008.png 257.57 KB

Description

image


Genre:Action
Language:English
IMDb:http://www.imdb.com/title/tt1781781/
Source:SKmbr Thanks!

Format : AVI
Format/Info : Audio Video Interleave
File size : 1.05 GiB
Duration : 1h 34mn
Overall bit rate : 1 591 Kbps

Video
ID : 0
Format : MPEG-4 Visual
Format profile : Advanced Simple@L5
Format settings, BVOP : Yes
Format settings, QPel : No
Format settings, GMC : No warppoints
Format settings, Matrix : Default (H.263)
Codec ID : XVID
Codec ID/Hint : XviD
Duration : 1h 34mn
Bit rate : 1 133 Kbps
Width : 640 pixels
Height : 272 pixels
Display aspect ratio : 2.35:1
Frame rate : 25.000 fps
Color space : YUV
Chroma subsampling : 4:2:0
Bit depth : 8 bits
Scan type : Progressive
Bits/(Pixel*Frame) : 0.260
Stream size : 767 MiB (71%)
Writing library : XviD 1.2.1 (UTC 2008-12-04)

Audio
ID : 1
Format : AC-3
Format/Info : Audio Coding 3
Mode extension : CM (complete main)
Codec ID : 2000
Duration : 1h 34mn
Bit rate mode : Constant
Bit rate : 448 Kbps
Channel(s) : 6 channels
Channel positions : Front: L C R, Side: L R, LFE
Sampling rate : 48.0 KHz
Bit depth : 16 bits
Stream size : 303 MiB (28%)
Alignment : Aligned on interleaves
Interleave, duration : 40 ms (1.00 video frame)
Interleave, preload duration : 512 ms


Plot:
Born To Race� is the story of Danny Krueger, a rebellious young street racer on a collision course with trouble. After an accident at an illegal street race, he is sent to a small town to live with his estranged father, a washed up NASCAR racer. When Danny decides to enter the NHRA High School Drags, he's forced to seek his father's help in taking down the local hot shot.

TRAILER:
[embed=youtube]http://www.youtube.com/watch?v=6ZwxqAZV1QI[/embed]

image
image
image
image
image
image
image
image


Greets:

INK,CRYS,IMAGINE,LKRG,FXG,3Li,FLAWL3SS,TA,iLLUSiON,ViSiON,DTRG SAFCuk009,LU,TheFalcon007,MYSTiC,PrisM,Noir,WBZ,LAP,Rx,Kingdom,SAFCuk009+Fabreezy,HDLiTE,TWiZTED,ExtraTorrentRG.ELEKTRI4KA,MAGNAT,CM8
And to all the other p2p grps past and present



Make sure its a real Feel-Free release @ http://extratorrent.com

Thanks to all who promotes release Feel-Free !!!

Related Torrents

torrent name size files age seed leech

Sharing Widget


Download torrent
1.05 GB
seeders:3
leechers:1
Born to Race.2011.DvDRip.XviD.Ac3.Feel-Free

Trackers

tracker name Status checked seeders leechers downloads
http://10.rarbg.com/announce
private 09 May 2012 - - -
http://pow7.com/announce
outdated 09 May 2012 - - -
http://tracker.istole.it/announce
outdated 26 Oct 2011 - - -
udp://tracker.1337x.org:80/announce
outdated 16 Sep 2011 - - -
http://tracker.openbittorrent.com/announce
outdated 16 Sep 2011 - - -
udp://tracker.openbittorrent.com:80/announce
outdated 16 Sep 2011 - - -
udp://tracker.publicbt.com:80/announce
outdated 16 Sep 2011 - - -
udp://tracker.istole.it:80/announce
outdated 16 Sep 2011 - - -
http://tracker.publicbt.com/announce
deleted 11 Mar 2013 - - -
http://9.rarbg.com:2710/announce
private 16 Sep 2011 - - -
http://tracker.novalayer.org:6969/announce
pending 16 Sep 2011 3 80 2
µTorrent compatible trackers list

Locations

name
KickassTorrents
ExtraTorrent
ThePirateBay
Fenopy
Limetorrents
Torrent hash: 43D254E809D16570FC3605C01628E9B51FBC3F9A

All Comments

audio
0/10
video
0/10
please, leave only comments related to that torrent
or sign-in

User Opinions

Report a bug