Born to Defend/Born to Defense (1986) Jet Li

seeders: 2
leechers: 1
Added on Dec 21, 2010 in Movies
Torrent verified. Downloaded 10 times.

Available in versions: DVDRip
Born to Defend/Born to Defense (1986) Jet Li (Size: 701.54 MB)
  Born to DefendBorn to Defense (1986) [Jet Li].avi 701.54 MB

Description

**English subtitles included**




Born to Defend/Born to Defense (1986) [Jet Li]
Zhong hua ying xiong (original title)


Jet, a young soldier at the end of the second world war must overcome some abusive Americans who are bullying him as well as the Chinese people.


General Info:

Format : AVI
Format/Info : Audio Video Interleave
File size : 702 MiB
Duration : 1h 28mn
Overall bit rate : 1 107 Kbps

Video
ID : 0
Format : MPEG-4 Visual
Format settings, BVOP : Yes
Format settings, QPel : No
Format settings, GMC : No warppoints
Format settings, Matrix : Default (H.263)
Codec ID : DX50
Codec ID/Hint : DivX 5
Duration : 1h 28mn
Bit rate : 969 Kbps
Width : 712 pixels
Height : 384 pixels
Display aspect ratio : 1.854
Frame rate : 25.000 fps
Color space : YUV
Chroma subsampling : 4:2:0
Bit depth : 8 bits
Scan type : Progressive
Bits/(Pixel*Frame) : 0.142
Stream size : 614 MiB (88%)
Writing library : DivX 1328m

Audio
ID : 1
Format : MPEG Audio
Format version : Version 1
Format profile : Layer 3
Codec ID : 55
Codec ID/Hint : MP3
Duration : 1h 28mn
Bit rate mode : Constant
Bit rate : 128 Kbps
Channel(s) : 2 channels
Sampling rate : 44.1 KHz
Video delay : 26ms
Stream size : 81.1 MiB (12%)
Alignment : Split accross interleaves
Interleave, duration : 40 ms (1.00 video frame)
Title : Audio Stream



http://www.imdb.com/title/tt0096507/










Uploader Notes:

This is one of my many HARD TO FIND movies, so please be patient, if you chose to download. Thanks and enjoy. (As it has already been added to my seedbox!)


And if you\'d like to review me, please click bellow:
http://extratorrent.com/user/review_add/?user=iwanttobelieveinaj



Greetings to all RELEASE GROUPS out there, and all members of this site.

Related Torrents

torrent name size files age seed leech

Sharing Widget


Download torrent
701.54 MB
seeders:2
leechers:1
Born to Defend/Born to Defense (1986) Jet Li

Trackers

tracker name Status checked seeders leechers downloads
udp://tracker.publicbt.com:80/announce
active 31 Aug 2014 1 1 10
udp://tracker.openbittorrent.com:80/announce
active 31 Aug 2014 2 0 10
http://10.rarbg.com/announce
private 29 Sep 2013 - - -
http://pow7.com/announce
outdated 29 Sep 2013 - - -
http://exodus.1337x.org/announce
outdated 29 Sep 2013 - - -
http://tracker.openbittorrent.com/announce
outdated 29 Sep 2013 - - -
http://nemesis.1337x.org/announce
outdated 29 Sep 2013 - - -
http://tracker.publicbt.com/announce
deleted 29 Sep 2013 - - -
µTorrent compatible trackers list

Locations

name
ExtraTorrent
Torrent hash: d9be9ad41a795a056aec3e7cd915666ed48dce74

All Comments

audio
7/10
video
6/10
please, leave only comments related to that torrent
or sign-in
0
Illyrian-King13.7K • 19 November 2012, 13:37
torrent downloaded
Show comment
audio: 7video: 7
0
mc_darklight4336 • 06 October 2011, 16:30
torrent downloaded
Show comment
audio: 7video: 6

User Opinions

mc_darklight4336, vicioushero2161, wizardaxe424, fhcd69243, lenny101186, Dutch1265138, Sabi9386, Skillaci07656, topengsky47, akutom1 ... And 4 more
WhiteDemon19
Report a bug