Blood Diamond DvDRip.H264.vice

seeders: 0
leechers: 1
Added on May 19, 2010 in Movies
Torrent verified. Downloaded 120 times.

Summary:
A fisherman, a smuggler, and a syndicate of businessmen match wits over the possession of a priceless diamond.
Submitted by 5fingerdis47.08K
report summary
Available in versions: 1080p720pHDRiPDVDDVDRip
Blood Diamond DvDRip.H264.vice (Size: 637.9 MB)
  bdiamond.xvid.vice.avi 637.9 MB
  Torrent downloaded from AhaShare.com.txt 59 bytes
  Torrent downloaded from Demonoid.com.txt 47 bytes

Description

BLOOD DIAMOND 2006 DVDRip H264 English Audio english subtitles are hardcoded for non english parts

Format : AVI
Format/Info : Audio Video Interleave
File size : 638 MiB
Duration : 2h 17mn
Overall bit rate : 649 Kbps
Writing application : MEncoder SVN-r29352(20090610-gcc4.3.3)
Writing library : MPlayer

Video
ID : 0
Format : AVC
Format/Info : Advanced Video Codec
Format profile : Baseline@L1.3
Format settings, CABAC : No
Format settings, ReFrames : 1 frame
Codec ID : avc1
Duration : 2h 17mn
Bit rate : 509 Kbps
Nominal bit rate : 512 Kbps
Width : 640 pixels
Height : 360 pixels
Display aspect ratio : 16:9
Frame rate : 25.000 fps
Resolution : 24 bits
Colorimetry : 4:2:0
Scan type : Progressive
Bits/(Pixel*Frame) : 0.088
Stream size : 500 MiB (78%)
Writing library : x264 core 67 r1163+17 7d945df
Encoding settings : cabac=0 / ref=1 / deblock=1:0:0 /

Audio
ID : 1
Format : MPEG Audio
Format version : Version 1
Format profile : Layer 3
Codec ID : 55
Codec ID/Hint : MP3
Duration : 2h 17mn
Bit rate mode : Constant
Bit rate : 128 Kbps
Channel(s) : 2 channels
Sampling rate : 44.1 KHz
Resolution : 16 bits
Video delay : 40ms
Stream size : 126 MiB (20%)
Alignment : Aligned on interleaves
Interleave, duration : 26 ms (0.65 video frame)
Interleave, preload duration : 522 ms
Writing library : LAME3.98Set during Sierra Leone Civil War in 1996-1999, the film shows a country torn apart by the struggle between government soldiers and rebel forces.[1] The film portrays many of the atrocities of that war, including the rebels' amputation of people's hands to discourage them from voting in upcoming elections.

The film begins with the capture of Solomon Vandy (Djimon Hounsou), a Mende fisherman, by the Revolutionary United Front (RUF) rebels when they invade the small Sierra Leonian village of Shenge. Separated from his family, Solomon is enslaved to work in the diamond fields under the command of a Warlord called Captain Poison (David Harewood) while his son Dia is conscripted into the rebel forces, the brainwashing eventually turning him into a hardened killer. The RUF use the diamonds to fund their war effort, often trading them directly for arms. While working in the RUF diamond fields as a forced laborer, Solomon finds a large, pink diamond in the diamond fields. Claiming that he must go to the toilet, Solomon hides the diamond between his toes to try and sneak it away to bury it. However, moments before government troops launch an attack, Captain Poison sees Solomon hiding the diamond. Captain Poison is injured in the attack before he can get the stone, and both he and Solomon are taken to prison in Freetown, the capital of Sierra Leone.
http://www.imdb.com/title/tt0450259/

PLEASE SEED AND ENJOY THANKS

To watch this file on you,re PC then i recomend using VLC media player or MEDIA PLAYER CLASSIC

To burn to disc the i recomend using CONVERTX 2 DVD click link below

http://thepiratebay.org/torrent/5018839/VSO.Convert-X.to.DVD.3.5.3%28vice%29

SCREEN SHOTS
http://img708.imageshack.us/img708/6087/bdiamondxvidviceavithum.jpg

Related Torrents

torrent name size files age seed leech

Sharing Widget


Download torrent
637.9 MB
seeders:0
leechers:1
Blood Diamond DvDRip.H264.vice

Trackers

tracker name Status checked seeders leechers downloads
http://nemesis.1337x.org/announce
outdated 13 Jul 2011 - - -
http://tracker.openbittorrent.com/announce
outdated 06 Jul 2010 - - -
udp://tracker.tntvillage.scambioetico.org:2710/announce
outdated 19 May 2010 - - -
udp://tracker.publicbt.com:80/announce
outdated 19 May 2010 - - -
udp://tracker.openbittorrent.com:80/announce
outdated 19 May 2010 - - -
http://tracker.publicbt.com/announce
deleted 11 Mar 2013 - - -
http://tracker.tntvillage.scambioetico.org:2710/announce
error 19 May 2010 - - -
ĀµTorrent compatible trackers list

Locations

name
ThePirateBay
1337x
ExtraTorrent
Torrent hash: 2ad70765bf758a829dca095a2f0107a15dc74b8a

All Comments

audio
0/10
video
0/10
please, leave only comments related to that torrent
or sign-in
Report a bug