Blood Diamond 2006.720P.BRRip Hindi.Abhinav4u

seeders: 2
leechers: 1
Added on Feb 11, 2012 in Movies > Highres Movies
Downloaded 10 times.

Summary:
A fisherman, a smuggler, and a syndicate of businessmen match wits over the possession of a priceless diamond.
Submitted by 5fingerdis47.07K
report summary
Available in versions: 1080p720pBlu-RayHDRiPDVDDVDRip
Blood Diamond 2006.720P.BRRip Hindi.Abhinav4u (Size: 896.89 MB)
  Blood Diamond [2006] 720P.BRRip Hindi.Abhinav4u.mkv 893.77 MB
  sample.mkv 3.12 MB

Description

Info:-
Ripper :Abhinav4u
Format : Matroska
File size : 895 MiB
Duration : 2h 23mn
Overall bit rate : 873 Kbps
Movie name : Blood Diamond [2006] 720P BRRip Hindi
Encoded date : UTC 2012-01-16 22:20:15
Writing library : libebml v1.2.0 + libmatroska v1.1.0

Video
ID : 1
Format : AVC
Format/Info : Advanced Video Codec
Format profile : High@L4.0
Format settings, CABAC : Yes
Format settings, ReFrames : 3 frames
Codec ID : V_MPEG4/ISO/AVC
Duration : 2h 23mn
Bit rate mode : Variable
Bit rate : 700 Kbps
Maximum bit rate : 25.0 Mbps
Width : 1 280 pixels
Height : 528 pixels
Display aspect ratio : 2.40:1
Frame rate : 23.976 fps
Color space : YUV
Chroma subsampling : 4:2:0
Bit depth : 8 bits
Scan type : Progressive
Bits/(Pixel*Frame) : 0.043
Stream size : 701 MiB (78%)
Writing library : x264 core 114 r1924 08d04a4


Audio
ID : 2
Format : MPEG Audio
Format version : Version 1
Format profile : Layer 3
Mode : Joint stereo
Mode extension : MS Stereo
Codec ID : A_MPEG/L3
Codec ID/Hint : MP3
Duration : 2h 23mn
Bit rate mode : Variable
Bit rate : 172 Kbps
Minimum bit rate : 32.0 Kbps
Channel(s) : 2 channels
Sampling rate : 48.0 KHz
Compression mode : Lossy
Stream size : 176 MiB (20%)
Writing library : LAME3.98r
Encoding settings : -m j -V 0 -q 3 -lowpass 19.5 --vbr-old -b 32
Language : Hindi



Screenshots:-

image

image

image

image


Sample Included plz Comment on A/V Quality..
Regards:-Abhinav4u

Related Torrents

torrent name size files age seed leech

Sharing Widget


Download torrent
896.89 MB
seeders:2
leechers:1
Blood Diamond 2006.720P.BRRip Hindi.Abhinav4u

Trackers

tracker name Status checked seeders leechers downloads
udp://tracker.publicbt.com:80/announce
outdated 28 Aug 2014 - - -
udp://tracker.istole.it:80/announce
outdated 28 Aug 2014 - - -
udp://tracker.openbittorrent.com:80/announce
outdated 28 Aug 2014 - - -
udp://tracker.1337x.org:80/announce
outdated 28 Jun 2013 - - -
http://pow7.com/announce
outdated 28 Jun 2013 - - -
http://tracker.openbittorrent.com/announce
outdated 28 Jun 2013 - - -
http://tracker.istole.it/announce
outdated 28 Jun 2013 - - -
http://tracker.publicbt.com/announce
deleted 28 Jun 2013 - - -
http://tracker.novalayer.org:6969/announce
pending 28 Jun 2013 0 0 0
µTorrent compatible trackers list

Locations

name
ExtraTorrent
Torrent hash: 3f4b84815d2cd4452b2b3c42ed56997edc92c64c

All Comments

audio
9/10
video
9/10
please, leave only comments related to that torrent
or sign-in
0
Toxicbaby1181 • 19 December 2012, 04:10
torrent downloaded
Show comment
Thanks !!
0
pikesean175 • 21 August 2012, 12:48
torrent downloaded
Show comment
audio: 9video: 9
great print
0
anonymous • 28 July 2012, 03:23 Show comment
audio: 10video: 10
Superb print..
0
anonymous • 26 July 2012, 18:05 Show comment
audio: 10video: 10
Awesome print...
0
MadMan27.18K • 11 April 2012, 14:19
torrent downloaded
Show comment
audio: 10video: 10
Best audio and best video ! gr8 upload .. and its very nice movie too .. fully njoyable !!!!!!!
thnksss lol wink

User Opinions

MadMan27.18K, Toxicbaby1181, softdisk556, BROCKY415153, Vasilli148
Report a bug