Black Sheep [2006] Dvdrip - PRESTiGE

seeders: 7
leechers: 1
Added on Oct 18, 2011 in Movies
Torrent verified. Downloaded 10 times.

Summary:
No summary yet
Available in versions: 720pBlu-RayDVDRipScreener
Black Sheep [2006] Dvdrip - PRESTiGE (Size: 709.97 MB)
  Black Sheep Dvdrip - PRESTiGE - Sample.avi 9.31 MB
  Black Sheep [2006] Dvdrip - PRESTiGE.avi 700.65 MB
  Black Sheep [2006] Dvdrip - PRESTiGE.nfo 2.64 KB
  Read this before playing this Video.txt 192 bytes
  torrent downloaded from www.scenetime.com.txt 192 bytes

Description

,
. http://www.scenetime.com/signup.php ---> Hottest scene tracker on the net !!!

Join Now http://www.scenetime.com/signup.php

seed back for speed






...................................NFO:.................................................[align=center]image

image

Complete name : Black Sheep [2006] Dvdrip - PRESTiGE.avi
Format : AVI
Format/Info : Audio Video Interleave
File size : 701 MiB
Duration : 1h 26mn
Overall bit rate : 1 127 Kbps
IMDB: http://www.imdb.com/title/tt0779982/
Encoder:Twisted
Source: Black Sheep Unrated - PRESTiGE

image

ID : 0
Format : MPEG-4 Visual
Format profile : Advanced Simple@L5
Format settings, BVOP : 2
Format settings, QPel : No
Format settings, GMC : No warppoints
Format settings, Matrix : Default (H.263)
Muxing mode : Packed bitstream
Codec ID : XVID
Codec ID/Hint : XviD
Duration : 1h 26mn
Bit rate : 989 Kbps
Width : 720 pixels
Height : 304 pixels
Display aspect ratio : 2.35:1
Frame rate : 23.976 fps
Color space : YUV
Chroma subsampling : 4:2:0
Bit depth : 8 bits
Scan type : Progressive
Compression mode : Lossy
Bits/(Pixel*Frame) : 0.189
Stream size : 615 MiB (88%)
Writing library : XviD 63


image

ID : 1
Format : MPEG Audio
Format version : Version 1
Format profile : Layer 3
Mode : Joint stereo
Mode extension : MS Stereo
Codec ID : 55
Codec ID/Hint : MP3
Duration : 1h 26mn
Bit rate mode : Constant
Bit rate : 128 Kbps
Channel(s) : 2 channels
Sampling rate : 44.1 KHz
Compression mode : Lossy
Delay relative to video : 26ms
Stream size : 79.6 MiB (11%)
Alignment : Split accross interleaves
Interleave, duration : 42 ms (1.00 video frame)
Interleave, preload duration : 500 ms


image

image
image
image
image


image

WE DONT RELEASE EVERYTHING TO OTHERS SITES YOU WANT MORE OF OUR STUFF COME FIND US AT .......
WE ARE LOOKING FOR SUPPLIERS BLURAY CAM R5 PRE RETAIL DVD GOT SOMETHING WE MIGHT LIKE WHEN YOU FIND US TELL US.......


Greets going out to

| Bigguy | DiLLoN | Thorn | Flawl3ss | Imagine | CTFX | BMB | akosipalos | HiTM4N | PA4U2C |


image[/align]

Related Torrents

torrent name size files age seed leech

Sharing Widget


Download torrent
709.97 MB
seeders:7
leechers:1
Black Sheep [2006] Dvdrip - PRESTiGE

Trackers

tracker name Status checked seeders leechers downloads
udp://tracker.openbittorrent.com:80/announce
outdated 05 Sep 2014 - - -
udp://tracker.publicbt.com:80/announce
outdated 05 Sep 2014 - - -
http://tracker.openbittorrent.com/announce
outdated 19 Aug 2013 - - -
http://tracker.publicbt.com/announce
deleted 19 Aug 2013 - - -
ĀµTorrent compatible trackers list

Locations

name
ThePirateBay
Torrent hash: 07cb3489d6fe31a39c4769bf99b64a7ce5a60535

Top Comments

2
UGotMail4051 • 15 Nov 2012, 16:23
torrent downloaded
audio: 9video: 9
Awesome! Thanks
2
dallass66328 • 28 Dec 2012, 20:06
torrent downloaded
audio: 9video: 9
awesome thanks
2
suk1114105 • 08 Feb 2013, 04:02
torrent downloaded
audio: 10video: 10
Nice Movie, Bhaaaaaaaaaaaahhhhaaa , Thanks

All Comments

audio
9/10
video
9/10
please, leave only comments related to that torrent
or sign-in
0
Ouncelifeian1927 • 16 February 2014, 15:07
torrent downloaded
Show comment
audio: 9video: 9
Thank you Uploader and Seederz!
0
jorge.ipp53 • 01 February 2014, 13:20
torrent downloaded
Show comment
Thanks !
0
livingdeadboi39 • 14 December 2013, 17:18
torrent downloaded
Show comment
good download works well. hilarious awesome movie
0
BlackHawk14853 • 27 August 2013, 09:46
torrent downloaded
Show comment
audio: 9video: 9
Great!!!
0
chaseseith2582 • 10 August 2013, 03:01
torrent downloaded
Show comment
audio: 9video: 9
0
castberry5184 • 06 August 2013, 16:00
torrent downloaded
Show comment
Thanks
0
bearddy2143 • 05 August 2013, 10:02
torrent downloaded
Show comment
audio: 9video: 9
great movie v9 a9
0
cumpareddu1124 • 23 June 2013, 18:23
torrent downloaded
Show comment
audio: 9video: 9
Thanks
2
kevinbors1740 • 14 March 2013, 16:23
torrent downloaded
Show comment
Nice video and audio. Gotta' love a movie with crazy, mutating sheep. Funny stuff.
Show More

User Opinions

wizworx6809, rayron4801, Naskal3980, WhiteFrog3822, chaseseith2582, CripesDM1458, rohit_mohta380, devilllangelll187, DjamelGsm87, darkdaniel57 ... And 100 more
Justin1987281953, alpha_131018, kohorca114
Report a bug