Advertising (remove)

Big Wet Asses - Ricki White and Luscious Lopez (XXX)(iPod,PSP,Zune)

seeders: 2
leechers: 3
Added on Mar 7, 2011 by punter21930 in XXX > Video
Torrent verified by onionmahn6364, 2 years and 6 months ago. Downloaded 10 times.

Big Wet Asses - Ricki White and Luscious Lopez (XXX)(iPod,PSP,Zune) (Size: 84.62 MB)
  Big Wet Asses - Ricki White&Luscious Lopez.m4v 84.35 MB
  screen.jpg 277.35 KB
Advertising (remove)

Description

image
Screenshot
Video
ID : 1
Format : AVC
Format/Info : Advanced Video Codec
Format profile : Baseline@L1.3
Format settings, CABAC : No
Format settings, ReFrames : 2 frames
Codec ID : avc1
Codec ID/Info : Advanced Video Coding
Duration : 28mn 13s
Bit rate mode : Variable
Bit rate : 350 Kbps
Width : 368 pixels
Height : 272 pixels
Display aspect ratio : 4:3
Frame rate mode : Variable
Frame rate : 23.976 fps
Minimum frame rate : 23.974 fps
Maximum frame rate : 23.981 fps
Color space : YUV
Chroma subsampling : 4:2:0
Bit depth : 8 bits
Scan type : Progressive
Bits/(Pixel*Frame) : 0.146
Stream size : 70.7 MiB (84%)
Writing library : x264 core 112
Audio
ID : 2
Format : AAC
Format/Info : Advanced Audio Codec
Format profile : LC
Codec ID : 40
Duration : 28mn 13s
Bit rate mode : Variable
Bit rate : 64.1 Kbps
Maximum bit rate : 101 Kbps
Channel(s) : 2 channels
Channel positions : Front: L R
Sampling rate : 48.0 KHz
Compression mode : Lossy
Stream size : 13.0 MiB (15%)
Language : English

Related Torrents

torrent name size files age seed leech

Sharing Widget


Download torrent
84.62 MB
seeders:2
leechers:3
Big Wet Asses - Ricki White and Luscious Lopez (XXX)(iPod,PSP,Zune)

Trackers

tracker name Status checked seeders leechers downloads
udp://tracker.openbittorrent.com:80/announce
outdated 12 Dec 2013 - - -
udp://tracker.publicbt.com:80/announce
outdated 12 Dec 2013 - - -
http://tracker.openbittorrent.com/announce
outdated 20 Aug 2012 - - -
http://exodus.1337x.org/announce
outdated 20 Aug 2012 - - -
http://tracker.publicbt.com/announce
deleted 11 Mar 2013 - - -
µTorrent compatible trackers list

Locations

name
KickassTorrents
ThePirateBay
1337x
Torrent hash: f642c87db3b8aa1ac8dea2fb3cc5706b4bd568ed

All Comments

audio
0/10
video
0/10
please, leave only comments related to that torrent
or sign-in
0
mn-x4079 • 19 September 2011, 18:47
torrent downloaded
Show comment
umm not bad
0
Cyenthies1793 • 27 August 2011, 20:06
torrent downloaded
Show comment
Its okay

User Opinions

capitolfi11.16K, 3131314378, mn-x4079, Cyenthies1793, Just4TheX1598, nmXhc602, comakaz385, ALLHA41, pompanoslim34, city_guy22210 ... And 6 more
Rustam71012
Report a bug