Before Midnight 2013 BLURRED 720p HDRip XviD AC3-Greekeagle12

seeders: 20
leechers: 2
Added on Jul 16, 2013 by greekeagle1256 in Movies
Downloaded 10 times.

Available in versions: 1080p720pBDRipHDRiPDVDDVDRip
Before Midnight 2013 BLURRED 720p HDRip XviD AC3-Greekeagle12 (Size: 1.68 GB)
  Screenshots
  Before Midnight 2013 BLURRED 720p HDRip XviD AC3-Greekeagle12.avi 1.65 GB
  Mediainfo.txt 2.74 KB
  sample.avi 23.52 MB

Description

FILE: Before Midnight 2013 BLURRED 720p HDRip XviD AC3-Greekeagle12
RE-ENCODE: GreekEagle12
SOURCE: Before Midnight 2013 KORSUB 720p HDRip x264 AAC-JYK
-------------------------------------------------------------------------------------

Uploader Notes
--------------
Re-encode and

1) Blurred Hardcoded Korean Subtitles

2) Cut few seconds at the begining

3) Kept Aspect/resolution and Turned to Avi - Xvid & AC3

4) Included sample

5) Included screenshots

Enjoy...
--------

Languages: English
Subtitles: -
-------------------------------------------------------------------------------------

ScreenShots
-----------
http://imageshack.us/a/img694/6486/k892.jpg

http://imageshack.us/a/img832/3671/ipgd.jpg

http://imageshack.us/a/img849/2010/koaf.jpg

http://imageshack.us/a/img62/5316/do60.jpg

http://imageshack.us/a/img191/420/q5q5.jpg


Before Midnight

Plot
----
We meet Jesse and Celine nine years on in Greece. Almost two decades have passed since their first meeting on that train bound for Vienna.

Media Info
----------

General
Complete name : Before Midnight 2013 BLURRED 720p HDRip XviD AC3-Greekeagle12Before Midnight 2013 BLURRED 720p HDRip XviD AC3-Greekeagle12.avi
Format : AVI
Format/Info : Audio Video Interleave
File size : 1.65 GiB
Duration : 1h 48mn
Overall bit rate : 2 180 Kbps
Writing library : VirtualDub build 32842/release

Video
ID : 0
Format : MPEG-4 Visual
Format profile : Advanced Simple@L5
Format settings, BVOP : 2
Format settings, QPel : No
Format settings, GMC : No warppoints
Format settings, Matrix : Default (H.263)
Muxing mode : Packed bitstream
Codec ID : XVID
Codec ID/Hint : XviD
Duration : 1h 48mn
Bit rate : 1 977 Kbps
Width : 1 280 pixels
Height : 688 pixels
Display aspect ratio : 1.85:1
Frame rate : 29.970 fps
Color space : YUV
Chroma subsampling : 4:2:0
Bit depth : 8 bits
Scan type : Progressive
Compression mode : Lossy
Bits/(Pixel*Frame) : 0.075
Stream size : 1.50 GiB (91%)
Writing library : XviD 64

Audio
ID : 1
Format : AC-3
Format/Info : Audio Coding 3
Mode extension : CM (complete main)
Format settings, Endianness : Big
Codec ID : 2000
Duration : 1h 48mn
Bit rate mode : Constant
Bit rate : 192 Kbps
Channel(s) : 2 channels
Channel positions : Front: L R
Sampling rate : 44.1 KHz
Bit depth : 16 bits
Compression mode : Lossy
Stream size : 149 MiB (9%)
Alignment : Aligned on interleaves
Interleave, duration : 35 ms (1.04 video frame)
Interleave, preload duration : 522 ms

Sharing Widget


Download torrent
1.68 GB
seeders:20
leechers:2
Before Midnight 2013 BLURRED 720p HDRip XviD AC3-Greekeagle12

Trackers

tracker name Status checked seeders leechers downloads
udp://tracker.openbittorrent.com:80/announce
outdated 21 Oct 2013 - - -
udp://tracker.publicbt.com:80/announce
outdated 21 Oct 2013 - - -
udp://tracker.istole.it:80/announce
outdated 25 Jul 2013 - - -
udp://fr33domtracker.h33t.com:3310/announce
deleted 25 Jul 2013 - - -
ĀµTorrent compatible trackers list

Locations

name
KickassTorrents
Torrent hash: 6C90C8998F67AB4FA23F3362AD6DFA913407C0C4

All Comments

audio
10/10
video
5/10
please, leave only comments related to that torrent
or sign-in
0
burningbush194 • 11 August 2013, 03:58 Show comment
Had to do a +150ms audio delay in VLC.
0
julesfmb3705 • 01 August 2013, 01:26
torrent downloaded
Show comment
audio: 10video: 5

User Opinions

tictoc1123, Mehdi.B519, serzt198
Report a bug