Bee Movie (2007) m-HD 480p AC3 Hindi [.Dude.]

seeders: 1
leechers: 2
Added on Sep 5, 2011 in Movies
Torrent verified. Downloaded 3 times.

Bee Movie (2007) m-HD 480p AC3 Hindi [.Dude.] (Size: 399.87 MB)
  sample.mkv 3.76 MB
  Bee Movie (2007) m-HD 480p AC3 Hindi BHATTI87.mkv.txt 5.98 KB
  Bee Movie (2007) m-HD 480p AC3 Hindi BHATTI87.mkv 396.11 MB

Description

Bee Movie (2007) | m-HD | 480p | AC3 | Hindi | BHATTI87

General
Unique ID : 181524777861219133785478600684780165653 (0x88906689569B851D99C8605FB3589A15)
Complete name :Movie (2007) m-HD 480p AC3 Hindi BHATTI87\Bee Movie (2007) m-HD 480p AC3 Hindi BHATTI87.mkv
Format : Matroska
File size : 396 MiB
Duration : 1h 26mn
Overall bit rate : 637 Kbps
Encoded date : UTC 2011-09-04 21:35:48
Writing application : mkvmerge v4.9.1 ('Ich will') built on Jul 11 2011 23:53:15
Writing library : libebml v1.2.1 + libmatroska v1.1.1

Video
ID : 1
Format : AVC
Format/Info : Advanced Video Codec
Format profile : High@L3.1
Format settings, CABAC : Yes
Format settings, ReFrames : 5 frames
Format settings, GOP : M=1, N=32
Codec ID : V_MPEG4/ISO/AVC
Duration : 1h 26mn
Bit rate : 507 Kbps
Width : 848 pixels
Height : 368 pixels
Display aspect ratio : 2.35:1
Frame rate : 23.976 fps
Color space : YUV
Chroma subsampling : 4:2:0
Bit depth : 8 bits
Scan type : Progressive
Bits/(Pixel*Frame) : 0.068
Stream size : 309 MiB (78%)
Writing library : x264 core 116 r2074 2641b9e

Audio
ID : 2
Format : AC-3
Format/Info : Audio Coding 3
Mode extension : CM (complete main)
Codec ID : A_AC3
Duration : 1h 26mn
Bit rate mode : Constant
Bit rate : 128 Kbps
Channel(s) : 2 channels
Channel positions : Front: L R
Sampling rate : 48.0 KHz
Bit depth : 16 bits
Compression mode : Lossy
Stream size : 79.6 MiB (20%)


Screens:
http://img708.imageshack.us/img708/7661/beemovie2007mhd480pac3h.jpg
http://img33.imageshack.us/img33/7661/beemovie2007mhd480pac3h.jpg
http://img263.imageshack.us/img263/7661/beemovie2007mhd480pac3h.jpg
http://img854.imageshack.us/img854/7661/beemovie2007mhd480pac3h.jpg
http://img585.imageshack.us/img585/7661/beemovie2007mhd480pac3h.jpg
http://img594.imageshack.us/img594/7661/beemovie2007mhd480pac3h.jpg
http://img851.imageshack.us/img851/7661/beemovie2007mhd480pac3h.jpg

~ Seed 4 others,Others would seed 4 u ~
Be a Gentleman!!

______ ______ _______
( __ \ |\ /|( __ \ ( ____ \
| ( \ )| ) ( || ( \ )| ( \/
| | ) || | | || | ) || (__
| | | || | | || | | || __)
| | ) || | | || | ) || (
_ | (__/ )| (___) || (__/ )| (____/\ _
(_)(______/ (_______)(______/ (_______/(_)


A simple THANKS goes a long way... :-)
Any comments would b appreciated.

Related Torrents

torrent name size files age seed leech

Sharing Widget


Download torrent
399.87 MB
seeders:1
leechers:2
Bee Movie (2007) m-HD 480p AC3 Hindi [.Dude.]

Trackers

tracker name Status checked seeders leechers downloads
udp://tracker.openbittorrent.com:80/announce
active 05 Aug 2014 1 0 2
udp://tracker.publicbt.com:80/announce
active 05 Aug 2014 1 2 3
http://tracker.openbittorrent.com/announce
outdated 18 May 2013 - - -
http://tracker.publicbt.com/announce
deleted 18 May 2013 - - -
µTorrent compatible trackers list

Locations

name
ThePirateBay
Limetorrents
Torrent hash: 252a31fed571174aa509fb23dc2d8c7dc913c99b

All Comments

audio
10/10
video
10/10
please, leave only comments related to that torrent
or sign-in
0
FuzzyCookie2126 • 04 August 2012, 20:27
torrent downloaded
Show comment
audio: 10video: 10
this finally got downloaded and i find its in Hindi. My mistake tho shouldve read the title clearly which says hindi lol.. btw since I understand hindi it aint a big prob. quality of the download was great and thanks.
0
FuzzyCookie2126 • 12 July 2012, 18:23
torrent downloaded
Show comment
super slow. I think if i would have downloaded a 700mb movie. it would have downloaded faster.. gosh :( i got bored and downloaded a 700mb version.
1
sunnyboy19853 • 18 September 2011, 12:39
torrent downloaded
Show comment
Bee Movie is average but rip is good even the rip quality of sound is good

User Opinions

Report a bug