Bee Gees - One Night Only[1997]DvDrip - Harrharrr

seeders: 7
leechers: 1
Added on Dec 1, 2009 in Movies
Torrent verified. Downloaded 10 times.

Available in versions: 1080p720pDVDDVDRip
Bee Gees - One Night Only[1997]DvDrip - Harrharrr (Size: 2.28 GB)
  Bee Gees - One Night Only - DTS_agk (rip log).log 3.75 KB
  Bee Gees - One Night Only.txt 2.63 KB
  Bee Gees - One Night Only[1997]DvDrip - Harrharrr.avi 2.28 GB
  Bee_Gees_One_Night_Only.jpg 323.47 KB
  Bee_Gees_One_Night_Only_disk.jpg 162.39 KB

Description

Enjoy this amazing Concert from the Bee Gees, thought it was about time to upload this one now that they are returning after the terrible loss of Maurice.
File turned out quite big due to quality encoding (included the code log file for those interested) + the info below.
General
Complete name : K:HQ Music & StuffBee Gees - One Night Only[1997]DvDrip - HarrharrrBee Gees - One Night Only[1997]DvDrip - Harrharrr.avi
Format : AVI
Format/Info : Audio Video Interleave
Format profile : OpenDML
File size : 2.28 GiB
Duration : 1h 50mn
Overall bit rate : 2 951 Kbps
Writing application : VirtualDubMod 1.5.4.1 (build 2178/release)
Writing library : VirtualDubMod build 2178/release

Video
ID : 0
Format : MPEG-4 Visual
Format profile : AdvancedSimple@L5
Format settings, BVOP : Yes
Format settings, QPel : No
Format settings, GMC : No warppoints
Format settings, Matrix : Custom
Codec ID : XVID
Codec ID/Hint : XviD
Duration : 1h 50mn
Bit rate : 1 431 Kbps
Width : 720 pixels
Height : 416 pixels
Display aspect ratio : 16/9
Frame rate : 29.970 fps
Resolution : 24 bits
Colorimetry : 4:2:0
Scan type : Progressive
Bits/(Pixel*Frame) : 0.159
Stream size : 1.11 GiB (49%)
Writing library : XviD 1.2.1 (UTC 2008-12-04)

Audio
ID : 1
Format : DTS
Format/Info : Digital Theater Systems
Codec ID : 2001
Codec ID/Info : Digital Theater Systems
Duration : 1h 50mn
Bit rate mode : Constant
Bit rate : 1 510 Kbps
Channel(s) : 6 channels
Channel positions : Front: L C R, Surround: L R, LFE
Sampling rate : 48.0 KHz
Resolution : 20 bits
Stream size : 1.17 GiB (51%)
Alignment : Split accross interleaves
Interleave, duration : 96 ms (2.88 video frames)
Interleave, preload duration : 96 ms
Language : English

To the best group ever <3

Sharing Widget


Download torrent
2.28 GB
seeders:7
leechers:1
Bee Gees - One Night Only[1997]DvDrip - Harrharrr

Trackers

tracker name Status checked seeders leechers downloads
udp://tracker.openbittorrent.com:80/announce
outdated 03 Aug 2014 - - -
udp://tracker.publicbt.com:80/announce
outdated 03 Aug 2014 - - -
http://tracker.openbittorrent.com/announce
outdated 20 Jun 2013 - - -
http://tracker.publicbt.com/announce
deleted 20 Jun 2013 - - -
ĀµTorrent compatible trackers list

Locations

name
ThePirateBay
Torrentzap
SumoTorrent
Torrent hash: 8ad7ac8d6ea8a47e97ae8ac847d6a29d81bad725

All Comments

audio
2/10
video
5/10
please, leave only comments related to that torrent
or sign-in
0
anonymous • 12 May 2014, 13:11 Show comment
audio: 1video: 10
No Sound!!!
0
anonymous • 12 November 2012, 11:25 Show comment
NO SOUND!!!!!!!!!
0
anonymous • 31 May 2012, 01:09 Show comment
audio: 1video: 2
terrible quality rip
0
anonymous • 23 May 2012, 06:25 Show comment
audio: 1video: 1
i burnt it and it works on my computer but doent work on disk
0
anonymous • 21 August 2012, 11:18 Show comment
true
0
Juan_Supelano124 • 28 September 2011, 09:04
torrent downloaded
Show comment
audio: 8video: 8
Good Concert !
0
Jets65627 • 22 June 2010, 17:13
torrent downloaded
Show comment
Awesome A10 V 10
Legends

User Opinions

Report a bug