Bad Teacher 2011 TS - PRESTiGE

seeders: 4
leechers: 2
Added on Jul 10, 2011 in Movies
Torrent verified. Downloaded 134 times.

Summary:
A lazy, incompetent middle school teacher who hates her job and her students is forced to return to her job to make enough money for a boob job after her rich fiancé dumps her.
Submitted by MoonChild9861
report summary
Bad Teacher 2011 TS - PRESTiGE (Size: 707.15 MB)
  Bad Teacher 2011 TS - PRESTiGE.avi 707.15 MB

Description


image

image

File size : 707 MiB

Duration : 1h 27mn

Overall bit rate : 1 130 Kbps





Video

ID : 0

Format : MPEG-4 Visual

Format profile : Advanced Simple@L5

Format settings, BVOP : 2

Format settings, QPel : No

Format settings, GMC : No warppoints

Format settings, Matrix : Default (H.263)

Muxing mode : Packed bitstream

Codec ID : XVID

Codec ID/Hint : XviD

Duration : 1h 27mn

Bit rate : 993 Kbps

Width : 720 pixels

Height : 320 pixels

Display aspect ratio : 2.25:1

Frame rate : 25.000 fps

Color space : YUV

Chroma subsampling : 4:2:0

Bit depth : 8 bits

Scan type : Progressive

Compression mode : Lossy

Bits/(Pixel*Frame) : 0.172

Stream size : 621 MiB (88%)

Writing library : XviD 1.2.0.dev47 (UTC 2006-11-01)



Audio

ID : 1

Format : MPEG Audio

Format version : Version 1

Format profile : Layer 3

Mode : Joint stereo

Mode extension : MS Stereo

Codec ID : 55

Codec ID/Hint : MP3

Duration : 1h 27mn

Bit rate mode : Constant

Bit rate : 128 Kbps

Channel(s) : 2 channels

Sampling rate : 44.1 KHz

Compression mode : Lossy

Delay relative to video : 26ms

Stream size : 80.1 MiB (11%)

Alignment : Split accross interleaves

Interleave, duration : 40 ms (1.00 video frame)

Interleave, preload duration : 500 ms



source - Imagine

image

A comedy centered around a foul-mouthed, junior high teacher who,

after being dumped by her sugar daddy, begins to woo a colleague --

a move that pits her against a well-loved teacher



image

Cameron Diaz ... Elizabeth Halsey

Lucy Punch ... Amy Squirrel

Jason Segel ... Russell Gettis

Justin Timberlake ... Scott Delacorte

Phyllis Smith ... Lynn Davies

John Michael Higgins ... Principal Wally Snur

image

image

image

image

image




Related Torrents

torrent name size files age seed leech

Sharing Widget


Download torrent
707.15 MB
seeders:4
leechers:2
Bad Teacher 2011 TS - PRESTiGE

Trackers

tracker name Status checked seeders leechers downloads
http://10.rarbg.com/announce
private 09 May 2012 - - -
http://pow7.com/announce
outdated 09 May 2012 - - -
http://genesis.1337x.org:1337/announce
outdated 13 Jul 2011 - - -
http://exodus.1337x.org/announce
outdated 13 Jul 2011 - - -
http://nemesis.1337x.org/announce
outdated 13 Jul 2011 - - -
udp://tracker.publicbt.com:80/announce
outdated 10 Jul 2011 - - -
http://tracker.openbittorrent.com/announce
outdated 10 Jul 2011 - - -
udp://tracker.openbittorrent.com:80/announce
outdated 10 Jul 2011 - - -
http://tracker.publicbt.com/announce
deleted 18 Aug 2011 - - -
µTorrent compatible trackers list

Locations

name
1337x
ExtraTorrent
Torrent hash: c82a70424978e6109ffddd86b62242e439d6f69c

All Comments

audio
7/10
video
6/10
please, leave only comments related to that torrent
or sign-in
0
bkbully92 • 12 July 2011, 04:48
torrent downloaded
Show comment
audio: 7video: 6
cam job is okay a=7 v=6 ps3 ready

User Opinions

Report a bug