Avatar 3D (over/under) HD 720p MKV {x264 - AC3}

seeders: 2
leechers: 3
Added on Nov 15, 2010 by FireJeff84 in Movies
Downloaded 0 times.

Avatar 3D (over/under) HD 720p MKV {x264 - AC3} (Size: 15.24 GB)
  Avatar 3D HD MKV.mkv 15.24 GB

Description

NFO

General
Complete name : Avatar 3D HD MKV.mkv
Format : Matroska
File size : 15.2 GiB
Duration : 2h 41mn
Overall bit rate : 13.5 Mbps
Movie name : Avatar 3D HD MKV {x264 - AC3} [FJF]
Encoded date : UTC 2010-11-15 11:09:06
Writing application : mkvmerge v1.8.1 ('Little By Little') built on Nov 25 2006 16:14:30
Writing library : libebml v0.7.7 + libmatroska v0.8.0
Cover : Yes

Video
ID : 1
Format : AVC
Format/Info : Advanced Video Codec
Format profile : High@L4.0
Format settings, CABAC : Yes
Format settings, ReFrames : 4 frames
Codec ID : V_MPEG4/ISO/AVC
Duration : 2h 41mn
Bit rate : 12.2 Mbps
Width : 1 280 pixels
Height : 1 440 pixels
Display aspect ratio : 0.889
Frame rate : 23.976 fps
Color space : YUV
Chroma subsampling : 4:2:0
Bit depth : 8 bits
Scan type : Progressive
Bits/(Pixel*Frame) : 0.276
Stream size : 13.8 GiB (90%)
Title : Video 3D
Writing library : x264 core 107 r1745

Audio #1
ID : 2
Format : AC-3
Format/Info : Audio Coding 3
Mode extension : CM (complete main)
Codec ID : A_AC3
Duration : 2h 41mn
Bit rate mode : Constant
Bit rate : 640 Kbps
Channel(s) : 6 channels
Channel positions : Front: L C R, Side: L R, LFE
Sampling rate : 48.0 KHz
Bit depth : 16 bits
Stream size : 740 MiB (5%)
Title : Audio Anglais 5.1
Language : English

Audio #2
ID : 3
Format : AC-3
Format/Info : Audio Coding 3
Mode extension : CM (complete main)
Codec ID : A_AC3
Duration : 2h 41mn
Bit rate mode : Constant
Bit rate : 384 Kbps
Channel(s) : 6 channels
Channel positions : Front: L C R, Side: L R, LFE
Sampling rate : 48.0 KHz
Bit depth : 16 bits
Stream size : 444 MiB (3%)
Title : Audio Franτais 5.1
Language : French

Text #1
ID : 4
Format : UTF-8
Codec ID : S_TEXT/UTF8
Codec ID/Info : UTF-8 Plain Text
Title : Sous-titres Franτais 3D
Language : French

Text #2
ID : 5
Format : UTF-8
Codec ID : S_TEXT/UTF8
Codec ID/Info : UTF-8 Plain Text
Title : Sous-titres Franτais ForcΘs 3D
Language : French

Text #3
ID : 6
Format : UTF-8
Codec ID : S_TEXT/UTF8
Codec ID/Info : UTF-8 Plain Text
Title : Sous-titres Anglais 3D
Language : English

Related Torrents

torrent name size files age seed leech

Sharing Widget


Download torrent
15.24 GB
seeders:2
leechers:3
Avatar 3D (over/under) HD 720p MKV {x264 - AC3}

Trackers

tracker name Status checked seeders leechers downloads
udp://tracker.publicbt.com:80/announce
outdated 15 Nov 2010 - - -
http://tracker.openbittorrent.com/announce
outdated 15 Nov 2010 - - -
udp://tracker.openbittorrent.com:80/announce
outdated 15 Nov 2010 - - -
http://tracker.publicbt.com/announce
deleted 11 Mar 2013 - - -
µTorrent compatible trackers list

Locations

name author
KickassTorrents FireJeff
Torrent hash: af570e2fd5090b740224976a3e33ea57180e57c2

Uploader Comments

0
FireJeff84 • 13 Dec 2010, 09:05
torrent downloaded
audio: 10video: 10
"Reason being is whoever created this file says it's in 720 but its actually in 1440. So a bit bemused because surely the source disc is only 1080."
The source disc is in 1080p for each eye (right and left). It's a 3D over/under, so the resolution for real 720p is 720+720 = 1440

All Comments

audio
8/10
video
7/10
please, leave only comments related to that torrent
or sign-in
0
Gaz1rsole17 • 24 June 2011, 13:40
torrent downloaded
Show comment
audio: 9video: 6
Not bad for a 3D, Colour is a little faded in areas, i.e Green Faces, but apart from that good
0
mshuaib47 • 13 February 2011, 08:07
torrent downloaded
Show comment
audio: 8video: 8
0
vxz212 • 19 December 2010, 14:35
torrent downloaded
Show comment
Thank you , much appreciated!
0
FireJeff84 • 13 December 2010, 09:05
torrent downloaded
Show comment
audio: 10video: 10
"Reason being is whoever created this file says it's in 720 but its actually in 1440. So a bit bemused because surely the source disc is only 1080."
The source disc is in 1080p for each eye (right and left). It's a 3D over/under, so the resolution for real 720p is 720+720 = 1440
0
thedude54467 • 15 December 2010, 18:31 Show comment
Okay, my basic grasp of maths isn't that bad. It looks as though certain TV's are classing it as one image before you join them, hence the error message. I've converted it and it's fine now. So thank you, beats the hell out of paying £200+ on ebay. Damn you exclusive Panasonic deal!
0
anonymous • 11 December 2010, 14:33 Show comment
audio: 10video: 10
this is in 3d!!!!!!!!!!!!! thank you uploader!
0
thedude54467 • 06 December 2010, 20:43 Show comment
Not supported on Samsung C6900 3D TV. Error message "Unsupported Resolution". Reason being is whoever created this file says it's in 720 but its actually in 1440. So a bit bemused because surely the source disc is only 1080. Gutted also, as it will take ages to convert properly.
0
clash01018 • 07 December 2010, 02:53 Show comment
Same thing on my c8000 :-(
0
anonymous • 04 March 2011, 22:09 Show comment
audio: 3video: 3
hei dumb ass.Click on '3D' button on ur TV remote and select the center format (Half SBS).Once u choose it,then the two streams of images will be interlaced to get u 3d picture
0
anonymous • 11 December 2010, 14:43 Show comment
http://img593.imageshack.us/img593/6687/dasffw.jpg
0
anonymous • 27 March 2011, 04:20 Show comment
does not work on my LG 3D TV ... file format not recognized, I can see the two images on windows media player though.

User Opinions

rblando700, vxz212, mshuaib47, karek3
crlbuist1594
Report a bug