Atlantis End of a World Birth of a Legend 2011 BRRip XviD - ZOMBiES

seeders: 13
leechers: 0
Added on Jan 12, 2012 by legend63805 in Movies
Torrent verified. Downloaded 10 times.

Available in versions: 1080p720pBDRipHDRiPDVDDVDRip
Atlantis End of a World Birth of a Legend 2011 BRRip XviD - ZOMBiES (Size: 700.72 MB)
  Atlantis End of a World Birth of a Legend 2011 BRRip XviD - ZOMBiES.avi 700.72 MB
  Torrent Downloaded From ExtraTorrent.com.txt 353 bytes

Description



image
Release Name : Atlantis End of a World Birth of a Legend 2011 BRRip XviD - ZOMBiES
Rating : 6.0/10
Genre : Drama
Stars : Stephanie Leonidas, Reece Ritchie, Langley Kirkwood, Isadora Verwey
Director : Tony Mitchell
Writers : Rhidian Brook
Release Date : N/A
Movie Runtime : 1 hr 28 mins
Rated Under : N/A
Movie Plot : Tells the story of the greatest natural disaster of the ancient world, an event that experts believe inspired the legend of Atlantis.
http://www.imdb.com/title/tt1744825/

Format : AVI
Format/Info : Audio Video Interleave
File size : 701 MiB
Duration : 1h 28mn
Overall bit rate mode : Variable
Overall bit rate : 1 104 Kbps
Writing application : MEncoder SVN-r33823-4.1.2
Writing library : MPlayer

Video
ID : 0
Format : xvid
Codec ID : xvid
Duration : 1h 28mn
Bit rate : 968 Kbps
Width : 626 pixels
Height : 352 pixels
Display aspect ratio : 16:9
Frame rate : 23.976 fps
Bits/(Pixel*Frame) : 0.183
Stream size : 614 MiB (88%)

Audio
ID : 1
Format : MPEG Audio
Format version : Version 1
Format profile : Layer 3
Mode : Joint stereo
Mode extension : MS Stereo
Codec ID : 55
Codec ID/Hint : MP3
Duration : 1h 28mn
Bit rate mode : Variable
Bit rate : 123 Kbps
Channel(s) : 2 channels
Sampling rate : 48.0 KHz
Compression mode : Lossy
Stream size : 78.2 MiB (11%)
Alignment : Aligned on interleaves
Interleave, duration : 24 ms (0.58 video frame)
Interleave, preload duration : 477 ms

Source : 720p.BluRay.DTS.x264-xiaofriend
Watch out for Contraband 2012 .

GREETS:

FLAWL3SS,ViSiON,Rx,ELEKTRI4KA,26K,DTRG,3LT0N,RemixHD
And to all the other p2p grps past and present .

Looking for these,syncers,cammers,audio,silver supplier.....Have anything to offer????......
You know how to find us .

image
image
image

Related Torrents

torrent name size files age seed leech

Sharing Widget


Download torrent
700.72 MB
seeders:13
leechers:0
Atlantis End of a World Birth of a Legend 2011 BRRip XviD - ZOMBiES

Trackers

tracker name Status checked seeders leechers downloads
udp://tracker.openbittorrent.com:80/announce
outdated 14 Nov 2013 - - -
udp://tracker.publicbt.com:80/announce
outdated 14 Nov 2013 - - -
http://tracker.torrentbay.to:6969/announce
outdated 02 Dec 2012 - - -
http://tracker.openbittorrent.com/announce
outdated 11 Oct 2012 - - -
http://10.rarbg.com/announce
private 11 Oct 2012 - - -
udp://tracker.1337x.org:80/announce
outdated 11 Oct 2012 - - -
http://ipv4.tracker.harry.lu/announce
outdated 11 Oct 2012 - - -
http://tracker.pow7.com/announce
outdated 11 Oct 2012 - - -
http://tracker.ex.ua/announce
outdated 11 Oct 2012 - - -
http://exodus.desync.com:6969/announce
blocked 11 Oct 2012 - - -
http://fr33dom.h33t.com:3310/announce
deleted 20 May 2013 - - -
http://tracker.publicbt.com/announce
deleted 11 Mar 2013 - - -
udp://tracker.novalayer.org:6969/announce
pending 11 Oct 2012 0 0 0
ĀµTorrent compatible trackers list

Locations

name author
KickassTorrents legend
ThePirateBay subha1561
ExtraTorrent
Torrent hash: 0232B97B5035D3A682566F61CBFF352C86CFE222

Top Comments

8
anonymous • 13 Jan 2012, 03:20
Always amazing that uploaders are nice enough to go to so much effort to share not only the torrent, but all the little niceties (links to IMDb, descriptions, all that stuff which spoils us so much - even on movies that aren't exactly blockbusters...) We should all say thanks every time, IMHO. So, Thanks uploader.

All Comments

audio
8/10
video
8/10
please, leave only comments related to that torrent
or sign-in
0
fum77294 • 27 October 2013, 11:25
torrent downloaded
Show comment
audio: 9video: 8
thanks zombies
0
mrband827 • 14 October 2013, 11:56
torrent downloaded
Show comment
Excellent, thank you
0
Army-Vet536 • 29 July 2013, 02:25
torrent downloaded
Show comment
audio: 9video: 9
OK movie/pseudo-documentary. Thanks to the uploader and seeders.
0
maxdmartin454 • 26 June 2013, 04:11 Show comment
audio: 9video: 8
0
anonymous • 08 June 2013, 09:48 Show comment
audio: 7video: 7
Good torrent. Not so good movie. If I was a God I would of punish some of them especially the older guy priest, is problem couse people like him that makes this world a hell istead of a peacful society.
0
firehawk694244 • 26 May 2013, 15:24
torrent downloaded
Show comment
audio: 9video: 9
biggrin
0
CfF20029476 • 03 March 2013, 09:53
torrent downloaded
Show comment
audio: 10video: 10
Good quality ... interesting movie ... good speed ...
Thanks for uploading! smile
0
misuari462 • 21 November 2012, 05:11
torrent downloaded
Show comment
good torrent...bad movie
0
cntsjr1059 • 28 October 2012, 19:54
torrent downloaded
Show comment
audio: 8video: 8
0
anonymous • 11 October 2012, 14:12 Show comment
THANX 4 THE UPLOAD
Show More

User Opinions

Report a bug