Atlantis End Of A World Birth Of A Legend 2011 BRRip XviD Ac3 Feel-Free

seeders: 35
leechers: 11
Added on Jan 25, 2012 by feel-free20.01K in Movies
Torrent verified. Downloaded 18,961 times.

Available in versions: 1080p720pBDRipHDRiPDVDDVDRip
Atlantis End Of A World Birth Of A Legend 2011 BRRip XviD Ac3 Feel-Free (Size: 1.27 GB)
  Atlantis End Of A World Birth Of A Legend 2011 BRRip XviD Ac3 Feel-Free.avi 1.27 GB
  Atlantis End Of A World Birth Of A Legend 2011 BRRip XviD Ac3 Feel-Free.nfo 3.24 KB
  gudny.jpg 44.1 KB
  Torrent downloaded from extratorrent.com.txt 118 bytes
  vlcsnap-2012-01-25-06h05m37s185.png 205.82 KB
  vlcsnap-2012-01-25-06h05m54s99.png 289.93 KB
  vlcsnap-2012-01-25-06h06m02s178.png 288.58 KB
  vlcsnap-2012-01-25-06h06m13s32.png 369.5 KB
  vlcsnap-2012-01-25-06h07m29s216.png 204.5 KB

Description

image


Genre:Drama
Language:English
IMDb:http://www.imdb.com/title/tt1744825/
Source:720p.BluRay.x264.DTS-WiKi Thanks!

Format : AVI
Format/Info : Audio Video Interleave
File size : 1.27 GiB
Duration : 1h 28mn
Overall bit rate : 2 049 Kbps

Video
ID : 0
Format : MPEG-4 Visual
Format profile : Advanced Simple@L5
Format settings, BVOP : 1
Format settings, QPel : No
Format settings, GMC : No warppoints
Format settings, Matrix : Default (H.263)
Codec ID : XVID
Codec ID/Hint : XviD
Duration : 1h 28mn
Bit rate : 1 591 Kbps
Width : 640 pixels
Height : 360 pixels
Display aspect ratio : 16:9
Frame rate : 25.000 fps
Color space : YUV
Chroma subsampling : 4:2:0
Bit depth : 8 bits
Scan type : Progressive
Compression mode : Lossy
Bits/(Pixel*Frame) : 0.276
Stream size : 1 011 MiB (78%)
Writing library : XviD 1.2.1 (UTC 2008-12-04)

Audio
ID : 1
Format : AC-3
Format/Info : Audio Coding 3
Mode extension : CM (complete main)
Codec ID : 2000
Duration : 1h 28mn
Bit rate mode : Constant
Bit rate : 448 Kbps
Channel(s) : 6 channels
Channel positions : Front: L C R, Side: L R, LFE
Sampling rate : 48.0 KHz
Bit depth : 16 bits
Compression mode : Lossy
Stream size : 284 MiB (22%)
Alignment : Aligned on interleaves
Interleave, duration : 40 ms (1.00 video frame)
Interleave, preload duration : 512 ms


Plot:
Tells the story of the greatest natural disaster of the ancient world, an event that experts believe inspired the legend of Atlantis.

TRAILER:
[embed=youtube]http://www.youtube.com/watch?v=rV9BVTi8t9U&=player_embedded[/embed]


image
image
image
image
image

Greets:

CRYS,IMAGINE,LKRG,FXG,3Li,FLAWL3SS,TA,iLLUSiON,EMBER,ETRG,BHRG,iLLUMiNATi,MiSTERE.ViSiON,DTRG SAFCuk009,LU,TheFalcon007,MYSTiC,PrisM,Noir,WBZ,LAP,Rx,Kingdom,SAFCuk009+Fabreezy,HDLiTE,TWiZTED,ExtraTorrentRG.ELEKTRI4KA,MAGNAT,CM8
And to all the other p2p grps past and present


Make sure its a real Feel-Free release @ http://extratorrent.com

Thanks to all who promotes release Feel-Free !!!

Related Torrents

torrent name size files age seed leech

Sharing Widget


Download torrent
1.27 GB
seeders:35
leechers:11
Atlantis End Of A World Birth Of A Legend 2011 BRRip XviD Ac3 Feel-Free

Trackers

tracker name Status checked seeders leechers downloads
http://10.rarbg.com/announce
private 13 Apr 2013 - - -
http://pow7.com/announce
outdated 13 Apr 2013 - - -
http://tracker.openbittorrent.com/announce
outdated 13 Apr 2013 - - -
udp://tracker.1337x.org:80/announce
outdated 13 Apr 2013 - - -
udp://tracker.openbittorrent.com:80/announce
outdated 13 Apr 2013 - - -
http://tracker.istole.it/announce
outdated 13 Apr 2013 - - -
udp://tracker.istole.it:80/announce
outdated 13 Apr 2013 - - -
udp://tracker.publicbt.com:80/announce
outdated 13 Apr 2013 - - -
http://tracker.publicbt.com/announce
deleted 13 Apr 2013 - - -
http://tracker.novalayer.org:6969/announce
pending 13 Apr 2013 0 0 0
ĀµTorrent compatible trackers list

Locations

name
KickassTorrents
ExtraTorrent
ThePirateBay
Torrent hash: 491BD0DBDC22CE0C94ED3E02E87C4EAD0013B8C3

All Comments

audio
8/10
video
8/10
please, leave only comments related to that torrent
or sign-in
0
ralph937 • 09 September 2012, 16:17
torrent downloaded
Show comment
audio: 9video: 9
thanks
0
pugs13pugs1769 • 13 July 2012, 23:34
torrent downloaded
Show comment
audio: 8video: 8
0
PhantasmWizard5605 • 07 February 2012, 23:36
torrent downloaded
Show comment
audio: 9video: 9
Great Job Up loader, Thanks.. Looking forward for your next release..
0
khannwfp940 • 26 January 2012, 17:38
torrent downloaded
Show comment
audio: 9video: 8
Great...............Thx for UP

User Opinions

srtecstasy7017, PhantasmWizard5605, Gingi1773, HaxingLyrical1562, pebe1041, khannwfp940, digifemme2617, conkat226, junkyscience193, mrraj84136 ... And 13 more
62496
Report a bug