Assassination.Games.2011.PVPRip.x264.Feel-Free

seeders: 7
leechers: 2
Added on Aug 8, 2011 by feel-free20.09K in Movies
Torrent verified. Downloaded 10 times.

Summary:
Two assassins agree to work together as one tries to avenge his wife and the other collect a reward for a job.
Submitted by Firestorm.19.61K
report summary
Assassination.Games.2011.PVPRip.x264.Feel-Free (Size: 1.21 GB)
  1lz42bajt38xsoo7paez.png 223.86 KB
  Assassination.Games.2011.PVPRip.x264 2.79 KB
  Assassination.Games.2011.PVPRip.x264.Feel-Free.mp4 1.21 GB
  Torrent downloaded from extratorrent.com.txt 171 bytes
  vlcsnap-00001.png 299.11 KB
  vlcsnap-00002.png 204.89 KB
  vlcsnap-00003.png 231.86 KB
  vlcsnap-00004.png 256.17 KB

Description

image



Genre:Action | Thriller
Language:English
IMDb:http://www.imdb.com/title/tt1436568/
Source:PPVRip Thanks!

Format : MPEG-4
Format profile : Base Media
Codec ID : isom
File size : 1.21 GiB
Duration : 1h 40mn
Overall bit rate : 1 725 Kbps

Video
ID : 1
Format : AVC
Format/Info : Advanced Video Codec
Format profile : High@L4.1
Format settings, CABAC : Yes
Format settings, ReFrames : 3 frames
Codec ID : avc1
Codec ID/Info : Advanced Video Coding
Duration : 1h 40mn
Bit rate mode : Variable
Bit rate : 1 500 Kbps
Maximum bit rate : 7 428 Kbps
Width : 640 pixels
Height : 472 pixels
Display aspect ratio : 4:3
Frame rate mode : Constant
Frame rate : 23.976 fps
Color space : YUV
Chroma subsampling : 4:2:0
Bit depth : 8 bits
Scan type : Progressive
Bits/(Pixel*Frame) : 0.207
Stream size : 1.05 GiB (87%)
Writing library : x264

Audio
ID : 2
Format : AAC
Format/Info : Advanced Audio Codec
Format version : Version 4
Format profile : LC
Format settings, SBR : No
Codec ID : 40
Duration : 1h 40mn
Bit rate mode : Variable
Bit rate : 224 Kbps
Maximum bit rate : 280 Kbps
Channel(s) : 2 channels
Channel positions : Front: L R
Sampling rate : 48.0 KHz
Stream size : 160 MiB (13%)


Plot:
Rival assassins -- each of whom are masters of their respective weapons -- form an uneasy alliance in their mission to take down a DEA-backed drug cartel

TRAILER:
[embed=youtube]http://www.youtube.com/watch?v=1-y3trCq6v8&feature=player_embedded[/embed]

image
image
image
image

Greets:

INK,CRYS,IMAGINE,LKRG,FXG,3Li,FLAWL3SS,TA,iLLUSiON,ViSiON,DTRG SAFCuk009,LU,TheFalcon007,MYSTiC,PrisM,Noir,WBZ,LAP,Rx,Kingdom,SAFCuk009+Fabreezy,HDLiTE,TWiZTED,ExtraTorrentRG.ELEKTRI4KA,MAGNAT,CM8
And to all the other p2p grps past and present




Thanks to all who promotes release Feel-Free !!!

Related Torrents

torrent name size files age seed leech

Sharing Widget


Download torrent
1.21 GB
seeders:7
leechers:2
Assassination.Games.2011.PVPRip.x264.Feel-Free

Trackers

tracker name Status checked seeders leechers downloads
udp://tracker.openbittorrent.com:80/announce
outdated 28 Aug 2013 - - -
http://nemesis.1337x.org/announce
outdated 28 Aug 2013 - - -
http://exodus.1337x.org/announce
outdated 28 Aug 2013 - - -
http://tracker.openbittorrent.com/announce
outdated 28 Aug 2013 - - -
http://genesis.1337x.org:1337/announce
outdated 28 Aug 2013 - - -
udp://tracker.publicbt.com:80/announce
outdated 28 Aug 2013 - - -
http://pow7.com/announce
outdated 28 Aug 2013 - - -
http://10.rarbg.com/announce
private 28 Aug 2013 - - -
http://tracker.publicbt.com/announce
deleted 28 Aug 2013 - - -
ĀµTorrent compatible trackers list

Locations

name
KickassTorrents
ExtraTorrent
ThePirateBay
Limetorrents
Torrent hash: 87850F0BFDB640256A49AB3A8C5EC8200F4A1F80

All Comments

audio
9/10
video
8/10
please, leave only comments related to that torrent
or sign-in
0
AtKoQo460 • 17 August 2012, 13:50
torrent downloaded
Show comment
audio: 9video: 6
idk for you guys but I didnt like quality :/ no offense
0
cricket67901111 • 18 May 2012, 22:00
torrent downloaded
Show comment
audio: 9video: 9
GREAT MOVIE
0
anonymous • 02 February 2012, 14:02 Show comment
and kiss my asshole
0
anonymous • 02 February 2012, 14:01 Show comment
audio: 10video: 10
super
0
anonymous • 07 September 2011, 02:33 Show comment
audio: 10video: 10
thanks so much
0
anonymous • 05 September 2011, 20:23 Show comment
audio: 1video: 1
fuckin sucks get fullscreen version in english duchbags
0
adieu_winter2867 • 07 September 2011, 09:47 Show comment
don't comment if you can't spell a swear word right. and back to you, douchebag.
0
CSOTAIMI934 • 22 September 2011, 16:51
torrent downloaded
Show comment
hey dont comment, if u dont like it,
0
aleeem143 • 12 August 2011, 18:34
torrent downloaded
Show comment
audio: 10video: 10
Thanks for uploading this torrent
I like it very much.
0
buckethead136 • 12 August 2011, 13:10
torrent downloaded
Show comment
audio: 8video: 9
it took some time but was a clear pic and there was no lag at all
0
anonymous • 10 August 2011, 13:32 Show comment
audio: 9video: 7

User Opinions

marhang4806, KnockKnock553392, 666miles3208, Yiannis_T1157, debbush918, IronCross1788487, NuclearCoffee468, jeffery_lewis398, aleeem143, denebasecas91 ... And 16 more
coppieking4120, Steelyjg3220, AtKoQo460
Report a bug