Arthur Christmas 2011 TS XViD DTRG

seeders: 48
leechers: 11
Added on Dec 19, 2011 in Movies
Torrent verified. Downloaded 59,417 times.

Summary:
Arthur Christmas reveals the incredible, never-before seen answer to every child's question: 'So how does Santa deliver all those presents in one night?' The answer: Santa's exhilarating, ultra-high-tech operation hidden beneath the North Pole. But at the center of the film is a story about a family in a state of comic dysfunction and an unlikely hero, Arthur, with an urgent mission that must be completed before Christmas morning dawns.
Submitted by Aroooo53.63K
report summary
Arthur Christmas 2011 TS XViD DTRG (Size: 1.08 GB)
  sample.avi 17.53 MB
  read me.txt 91 bytes
  Arthur Christmas 2011.avi 1.06 GB
  Torrent downloaded from extratorrent.com.txt 353 bytes

Description







Format : AVI
Format/Info : Audio Video Interleave
File size : 1.06 GiB
Duration : 1h 31mn
Overall bit rate : 1 657 Kbps
Writing library : VirtualDub build 32842/release

Video
ID : 0
Format : MPEG-4 Visual
Format profile : Advanced Simple@L5
Format settings, BVOP : 1
Format settings, QPel : No
Format settings, GMC : No warppoints
Format settings, Matrix : Default (H.263)
Muxing mode : Packed bitstream
Codec ID : XVID
Codec ID/Hint : XviD
Duration : 1h 31mn
Bit rate : 1 264 Kbps
Width : 730 pixels
Height : 304 pixels
Display aspect ratio : 2.40:1
Frame rate : 24.000 fps
Color space : YUV
Chroma subsampling : 4:2:0
Bit depth : 8 bits
Scan type : Progressive
Compression mode : Lossy
Bits/(Pixel*Frame) : 0.237
Stream size : 826 MiB (76%)
Writing library : XviD 64

Audio
ID : 1
Format : AC-3
Format/Info : Audio Coding 3
Mode extension : CM (complete main)
Codec ID : 2000
Duration : 1h 31mn
Bit rate mode : Constant
Bit rate : 384 Kbps
Channel(s) : 6 channels
Channel positions : Front: L C R, Side: L R, LFE
Sampling rate : 48.0 KHz
Bit depth : 16 bits
Compression mode : Lossy
Stream size : 251 MiB (23%)
Alignment : Aligned on interleaves
Interleave, duration : 42 ms (1.00 video frame)
Interleave, preload duration : 512 ms











http://www.imdb.com/title/tt1430607/





Storyline

Arthur Christmas reveals the incredible, never-before seen answer to every child\'s question: \'So how does Santa deliver all those presents in one night?\' The answer: Santa\'s exhilarating, ultra-high-tech operation hidden beneath the North Pole. But at the center of the film is a story about a family in a state of comic dysfunction and an unlikely hero, Arthur, with an urgent mission that must be completed before Christmas morning dawns.



















Source Used




iLLUMiNATi 720p ...........Thanks



Source already great ran a couple of filters sample included







Enjoy





Greetz to EMBER,ETRG,BHRG,FYA,CreWSaDe,RemixHD.......and maybe many more















Related Torrents

torrent name size files age seed leech

Sharing Widget


Download torrent
1.08 GB
seeders:48
leechers:11
Arthur Christmas 2011 TS XViD DTRG

Trackers

tracker name Status checked seeders leechers downloads
udp://tracker.publicbt.com:80/announce
outdated 11 Mar 2012 - - -
udp://tracker.1337x.org:80/announce
outdated 11 Mar 2012 - - -
udp://tracker.openbittorrent.com:80/announce
outdated 11 Mar 2012 - - -
http://tracker.openbittorrent.com/announce
outdated 11 Mar 2012 - - -
http://tracker.publicbt.com/announce
deleted 11 Mar 2013 - - -
http://9.rarbg.com:2710/announce
private 19 Dec 2011 - - -
µTorrent compatible trackers list

Locations

name
ExtraTorrent
ThePirateBay
Limetorrents
Torrent hash: d7d05524b7669456491c9fb2ab0908f4fc9dc0ba

All Comments

audio
7/10
video
6/10
please, leave only comments related to that torrent
or sign-in
0
anonymous • 25 September 2012, 15:02 Show comment
audio: 4video: 6
0
MonayJ43 • 11 September 2012, 11:22 Show comment
may i ask why there is no dvd rip for this movie when in came out in 2011????? What is going on people?
0
AngusButtons286 • 25 August 2012, 22:12
torrent downloaded
Show comment
audio: 10video: 10
Perfect quality! Thanks uploader!
0
Awes♥meBoy13.08K • 20 August 2012, 06:02
torrent downloaded
Show comment
audio: 8video: 8
good,
thanks uploader for sharing.
0
heedcom280 • 12 May 2012, 10:29
torrent downloaded
Show comment
audio: 6video: 6
cam version, but thanks
0
magduchababy258 • 14 April 2012, 18:59
torrent downloaded
Show comment
audio: 9video: 9
0
hasan007349 • 04 March 2012, 08:10
torrent downloaded
Show comment
thanks
0
pasaway185 • 04 March 2012, 02:46
torrent downloaded
Show comment
audio: 7video: 3
0
maduto35 • 08 February 2012, 16:10
torrent downloaded
Show comment
audio: 10video: 8
excellent quality!
Show More

User Opinions

pollytipsy10030.86K, markozlatni1300, JMAESTRO1102, godslinux975, TheGowk710, redzmacq265, magduchababy258, Chickpea89, js89, jimmac5 ... And 110 more
Static19611180, djsikes586, nix1502, YNEILL210, deshan1974208, veronicabanica205, nataliabarcelo151, queenclover60, HUMID58, andre_hassan57 ... And 9 more
Report a bug