Archer 2009 S02E06 HDTV x264 720p -CaRNaGE

seeders: 1
leechers: 1
Added on Mar 4, 2011 in TV
Torrent verified. Downloaded 2,113 times.

  • View all Archer (2009) episodes
  • Episode title: Tragical History
  • Episode: S02E06
  • Air date: 03 March 2011
  • Original run: 17 September 2009 — Present
  • Summary:
    At ISIS, an international spy agency, global crises are merely opportunities for its highly trained employees to confuse, undermine, betray and royally screw each other.
    Submitted by AllOuttaGum21.77K
    report summary
Archer 2009 S02E06 HDTV x264 720p -CaRNaGE (Size: 349.6 MB)
  Archer.2009.S02E06.HDTV.x264.720p-CaRNaGE.mkv 349.6 MB
  Archer.2009.S02E06.HDTV.x264.720p-CaRNaGE.nfo 3.91 KB
  Torrent dowloaded from Ahashare.com.txt 35 bytes
  Torrent downloaded from 1337x.org.txt 36 bytes
  Torrent downloaded from Demonoid.me.txt 38 bytes
  Torrent downloaded from extratorrent.com.txt 43 bytes
  torrent downloaded from H33T.com.txt 36 bytes
  Torrent downloaded from Torrentstate.com.txt 46 bytes

Description




image



Archer 2009 S02E06 HDTV x264 720p -CaRNaGE



Show Info



Set at the International Secret Intelligence Service (ISIS), suave master spy Sterling Archer deals with

global espionage; a domineering, hypersexual, late middle-aged mother/boss, Malory Archer; his

ex-girlfriend, Agent Lana Kane; her ISIS accountant boyfriend Cyril Figgis; and a less-than-masculine

code name—"Duchess".




The series itself is comparable to Reed's former shows for Adult Swim, Frisky Dingo and Sealab 2021,

in a series driven by rapid-fire dialogue and interaction-based drama. The series also features an

anachronistic style: using fashion from the 1960s, technology that is a mix of 1980s era computer

technology alongside modern technology, and an alternate-universe style political status quo in the

form of the Soviet Union still being active in the year 2010.




General



Genre: Adult Cartoons / Comedy

Language: English

Year: 2011

Season: Two

Episode: Six

Episode Title: "Tragical History"

Aired: March 3, 2011 (2011-03-03)



http://www.imdb.com/title/tt1486217/



http://www.tvrage.com/shows/id-23354



Episode Info:



Cyril agrees to help George Spelvin inject a virus into the ISIS mainframe so Cyril can defeat the virus and be seen as a hero.



Encoding



Video



ID : 1

Format : AVC

Format/Info : Advanced Video Codec

Format profile : High@L4.1

Format settings, CABAC : Yes

Format settings, ReFrames : 3 frames

Codec ID : V_MPEG4/ISO/AVC

Duration : 20mn 36s

Bit rate mode : Variable

Bit rate : 1 922 Kbps

Maximum bit rate : 40.0 Mbps

Width : 1 280 pixels

Height : 720 pixels

Display aspect ratio : 16:9

Frame rate : 23.976 fps

Color space : YUV

Chroma subsampling : 4:2:0

Bit depth : 8 bits

Scan type : Progressive

Bits/(Pixel*Frame) : 0.087

Stream size : 277 MiB (79%)

Writing library : x264 core 112 r1867 22bfd31

Encoding settings : cabac=1 / ref=4 / deblock=1:1:1 / analyse=0x3:0x113 / me=hex / subme=7 / psy=1 / psy_rd=0.40:0.00 / mixed_ref=1 / me_range=16 / chroma_me=1 / trellis=1 / 8x8dct=1 / cqm=0 / deadzone=21,11 / fast_pskip=1 / chroma_qp_offset=-2 / threads=6 / sliced_threads=0 / slices=4 / nr=0 / decimate=1 / interlaced=0 / constrained_intra=0 / bframes=3 / b_pyramid=1 / b_adapt=1 / b_bias=0 / direct=1 / weightb=1 / open_gop=2 / weightp=0 / keyint=50 / keyint_min=5 / scenecut=40 / intra_refresh=0 / rc_lookahead=40 / rc=2pass / mbtree=1 / bitrate=1922 / ratetol=1.0 / qcomp=0.60 / qpmin=0 / qpmax=51 / qpstep=4 / cplxblur=20.0 / qblur=0.5 / vbv_maxrate=40000 / vbv_bufsize=30000 / nal_hrd=vbr / ip_ratio=1.40 / aq=1:0.60

Language : English

Color primaries : BT.709-5, BT.1361, IEC 61966-2-4, SMPTE RP177

Transfer characteristics : BT.709-5, BT.1361

Matrix coefficients : BT.709-5, BT.1361, IEC 61966-2-4 709, SMPTE RP177





Audio



ID : 2

Format : AC-3

Format/Info : Audio Coding 3

Mode extension : CM (complete main)

Codec ID : A_AC3

Duration : 20mn 36s

Bit rate mode : Constant

Bit rate : 448 Kbps

Channel(s) : 6 channels

Channel positions : Front: L C R, Side: L R, LFE

Sampling rate : 48.0 KHz

Bit depth : 16 bits

Compression mode : Lossy

Stream size : 66.1 MiB (19%)



Screens



image

image

image

image



imageimageimage



Brought to you by




image



image






Related Torrents

torrent name size files age seed leech

Sharing Widget


Download torrent
349.6 MB
seeders:1
leechers:1
Archer 2009 S02E06 HDTV x264 720p -CaRNaGE

Trackers

tracker name Status checked seeders leechers downloads
http://10.rarbg.com/announce
private 09 May 2012 - - -
http://pow7.com/announce
outdated 09 May 2012 - - -
http://genesis.1337x.org:1337/announce
outdated 13 Jul 2011 - - -
http://exodus.1337x.org/announce
outdated 13 Jul 2011 - - -
http://inferno.demonoid.me:3416/announce
outdated 09 Mar 2011 - - -
http://tracker.openbittorrent.com/announce
outdated 04 Mar 2011 - - -
udp://tracker.publicbt.com:80/announce
outdated 04 Mar 2011 - - -
udp://tracker.openbittorrent.com:80/announce
outdated 04 Mar 2011 - - -
http://fr33dom.h33t.com:3310/announce
deleted 20 May 2013 - - -
http://tracker.publicbt.com/announce
deleted 18 Aug 2011 - - -
µTorrent compatible trackers list

Locations

name
1337x
Torrent hash: 1069660fd390c9dc555dc2c07b63851a488d0333

All Comments

audio
9/10
video
9/10
please, leave only comments related to that torrent
or sign-in
0
228_4ever10710.57K • 11 April 2011, 19:16
torrent downloaded
Show comment
audio: 10video: 10
0
peachesncream2008 • 29 March 2011, 19:21
torrent downloaded
Show comment
audio: 9video: 9

User Opinions

Report a bug