Apocalypse.Now.Redux.DVDRIP-ZEKTORM

seeders: 144
leechers: 12
Added on Jan 15, 2009 in Movies
Torrent verified. Downloaded 10 times.

Available in versions: 1080p720pBDRipHDRiPDVDDVDRip
Apocalypse.Now.Redux.DVDRIP-ZEKTORM (Size: 825.86 MB)
  Subs
  Apocalypse.Now.Redux.DVDRIP-ZEKTORM.mp4 800.31 MB
  READ.hlp 12.79 KB

Description



Title : Apocalypse Now

Year : 1979

Genre : Action | Drama | War

iMDB Rate : User Rating: 8.6/10 141,193

iMDB URL : http://www.imdb.com/title/tt0078788/
/>
Awards : Won 2 Oscars. Another 13 wins & 32 nominations



Complete name : Apocalypse.Now.Redux.DVDRIP-ZEKTORM.mp4

Format : MPEG-4

Format profile : Base Media

Codec ID : isom

File size : 800 MiB

Duration : 3h 13mn (Redux)

Overall bit rate : 577 Kbps

Subtitles : English, Spanish (Format: VobSub)

Source : DVD PAL

Encoded date : UTC 2009-01-13 19:08:09



Video

Format : AVC

Format/Info : Advanced Video Codec

Format profile : High@L4.1

Format settings, CABAC : Yes

Format settings, ReFrames : 10 frames

Codec ID : avc1

Codec ID/Info : Advanced Video Coding

Duration : 3h 13mn

Bit rate mode : Variable

Bit rate : 486 Kbps

Maximum bit rate : 5318 Kbps

Width : 704 pixels

Height : 496 pixels

Display aspect ratio : 2.065

Frame rate mode : Constant

Frame rate : 25.000 fps

Resolution : 24 bits

Colorimetry : 4:2:0

Scan type : Progressive

Bits/(Pixel*Frame) : 0.056

Stream size : 674 MiB (84%)

Title : Video

Writing library : x264 core 60 r900 a9af942



Audio

Format : AAC

Format/Info : Advanced Audio Codec

Format version : Version 4

Format profile : LC

Format settings, SBR : Yes

Format settings, PS : No

Codec ID : 40

Duration : 3h 13mn

Bit rate mode : Variable

Bit rate : 87.8 Kbps

Maximum bit rate : 121 Kbps

Channel(s) : 2 channels

Channel positions : L R

Sampling rate : 48.0 KHz

Resolution : 16 bits

Stream size : 122 MiB (15%)

Title : English

Language : English



Notes : Convert to DVD with Nero

Sharing Widget


Download torrent
825.86 MB
seeders:144
leechers:12
Apocalypse.Now.Redux.DVDRIP-ZEKTORM

Trackers

tracker name Status checked seeders leechers downloads
udp://tracker.openbittorrent.com:80/announce
active 15 Apr 2014 99 12 10
udp://tracker.publicbt.com:80/announce
active 15 Apr 2014 117 9 10
udp://tracker.istole.it:80/announce
active 15 Apr 2014 144 12 10
udp://tracker.1337x.org:80/announce
outdated 30 Aug 2013 - - -
http://exodus.desync.com:6969/announce
blocked 30 Aug 2013 - - -
udp://fr33domtracker.h33t.com:3310/announce
deleted 30 Aug 2013 - - -
ĀµTorrent compatible trackers list

Locations

name author
Mininova
SumoTorrent
SumoTorrent
SumoTorrent
Torrent hash: ddfbf1328698cddb1a5051412cdc1ab585facdb6

All Comments

audio
8/10
video
9/10
please, leave only comments related to that torrent
or sign-in
0
sensett967 • 26 March 2014, 04:46
torrent downloaded
Show comment
Thank you ! :-)
0
KarmaComa1788 • 17 February 2014, 14:25
torrent downloaded
Show comment
audio: 8video: 8
0
carolandjoe1410 • 21 January 2014, 14:06 Show comment
thank you
0
MTD1873053 • 14 December 2013, 15:52
torrent downloaded
Show comment
Thanks
0
sourav06495 • 28 November 2013, 15:38
torrent downloaded
Show comment
thanks
0
PapaGrumbles166 • 24 November 2013, 05:09 Show comment
audio: 7video: 7
Great movie. Will seed 3.0 for sure. No issues with torrent
0
HavocBringer75 • 05 November 2013, 06:42
torrent downloaded
Show comment
audio: 10video: 10
Well, what can i say? This is Apocalypse Now, Great movie, Great quality, 10/10 in every way Thanks for the upload, Looked great on my 60inch plasma!
Thanks Zek!
0
anonymous • 02 November 2013, 16:25 Show comment
please seed
0
titu.78 • 23 October 2013, 18:20 Show comment
audio: 10video: 10
Show More

User Opinions

Naskal3280, mosthated24912017, Moglee1246, donedeal1078, Gaco258280, noskill173, andcuri61, littlefriend42058, amoghactor37, slickenstein26 ... And 480 more
uqd2163, stevepc279, razaal201, The Virus 89124, chet_torrents99, k_arun00427, rodrigofaria26, Debbie64, chrisshoey2, Aspphire1 ... And 11 more
Report a bug