Apocalypse Now Redux (1979) 720p x264 AC3 Spa (es-Es) Eng + subs Spa

seeders: 2
leechers: 3
Added on Mar 26, 2012 by succubus-incubus8196 in Movies > Highres Movies
Torrent verified. Downloaded 31 times.

Available in versions: 1080p720pBDRipHDRiPDVDDVDRip
Apocalypse Now Redux (1979) 720p x264 AC3 Spa (es-Es) Eng + subs Spa (Size: 8.68 GB)
  Apocalypse Now Redux.mkv 8.68 GB

Description

Versión mejorada y redoblada de Apocalypse Now de Francis Ford Coppola, con Martin Sheen y Marlon Brando.

Los subtítulos en español han sido totalmente corregidos y mejorados por mí línea a línea.

Audios:

Español (castellano) AC3
English AC3

Información técnica detallada:

General
Format : Matroska
File size : 8.68 GiB
Duration : 3 h 22 min
Overall bit rate : 6143 kb/s
Encoded date : UTC 2012-02-25 19:44:28

Video
ID : 1
Format : AVC
Format/Info : Advanced Video Codec
Format profile : High@L5.1
Format settings, CABAC : Yes
Format settings, ReFrames : 8 frames
Codec ID : V_MPEG4/ISO/AVC
Duration : 3 h 22 min
Bit rate : 5125 kb/s
Nominal bit rate : 5407 kb/s
Width : 1280 pixels
Height : 640 pixels
Display aspect ratio : 2.000
Frame rate mode : Constant
Frame rate : 23.976 FPS
Color space : YUV
Chroma subsampling : 4:2:0
Bit depth : 8 bits
Scan type : Progressive
Bits/(Pixel*Frame) : 0.261
Stream size : 7.24 GiB (83%)
Writing library : x264 core 54

Audio #1
ID : 2
Format : AC-3
Format/Info : Audio Coding 3
Mode extension : CM (complete main)
Format settings, Endianness : Big
Muxing mode : Header stripping
Codec ID : A_AC3
Duration : 3 h 22 min
Bit rate mode : Constant
Bit rate : 448 kb/s
Channel(s) : 6 channels
Channel positions : Front: L C R, Side: L R, LFE
Sampling rate : 48.0 kHz
Bit depth : 16 bits
Compression mode : Lossy
Stream size : 648 MiB (7%)
Language : Spanish
Default : Yes
Forced : No

Audio #2
ID : 3
Format : AC-3
Format/Info : Audio Coding 3
Mode extension : CM (complete main)
Format settings, Endianness : Big
Muxing mode : Header stripping
Codec ID : A_AC3
Duration : 3 h 22 min
Bit rate mode : Constant
Bit rate : 448 kb/s
Channel(s) : 6 channels
Channel positions : Front: L C R, Side: L R, LFE
Sampling rate : 48.0 kHz
Bit depth : 16 bits
Compression mode : Lossy
Stream size : 648 MiB (7%)
Language : English
Default : No
Forced : No

Text
ID : 4
Format : ASS
Codec ID : S_TEXT/ASS
Codec ID/Info : Advanced Sub Station Alpha
Compression mode : Lossless
Language : Spanish

¡Disfruta y siembra!
Enjoy and seed!

Related Torrents

torrent name size files age seed leech

Sharing Widget


Download torrent
8.68 GB
seeders:2
leechers:3
Apocalypse Now Redux (1979) 720p x264 AC3 Spa (es-Es) Eng + subs Spa

Trackers

tracker name Status checked seeders leechers downloads
udp://tracker.openbittorrent.com:80/announce
outdated 13 Mar 2014 - - -
udp://tracker.publicbt.com:80/announce
outdated 13 Mar 2014 - - -
udp://tracker.istole.it:80/announce
outdated 13 Mar 2014 - - -
udp://open.demonii.com:1337/announce
outdated 13 Mar 2014 - - -
µTorrent compatible trackers list

Locations

name author
KickassTorrents succubus-incubus
Torrent hash: FF7EEBAE4CE2E5436A9BCC8832485534C290EF4F

Uploader Comments

0
succubus-incubus8196 • 17 Feb 2014, 16:51
audio: 8video: 9
Reseeding!!
Enjoy, rate and seed! :)
1
Mister_T17 • 20 Aug 2012, 01:33
torrent downloaded
audio: 10video: 10
De puta madre!
0
succubus-incubus8196 • 20 Aug 2012, 18:07
¡Sí! :D

All Comments

audio
9/10
video
9/10
please, leave only comments related to that torrent
or sign-in
0
succubus-incubus8196 • 17 February 2014, 16:51
Show comment
audio: 8video: 9
Reseeding!!
Enjoy, rate and seed! :)
1
Mister_T17 • 20 August 2012, 01:33
torrent downloaded
Show comment
audio: 10video: 10
De puta madre!
0
succubus-incubus8196 • 20 August 2012, 18:07
Show comment
¡Sí! :D

User Opinions

Report a bug