Amelia 2009 DVDRip XviD-Emery

seeders: 5
leechers: 1
Added on Jan 24, 2010 in Movies
Torrent verified. Downloaded 10 times.

Available in versions: 720pHDRiPDVDRipScreeneriPhone
Amelia 2009 DVDRip XviD-Emery (Size: 705.05 MB)
  Amelia.2009.DVDRip.XviD-Emery.avi 705.05 MB
  emery.nfo 3.96 KB

Description

General
Complete name : Amelia.2009.DVDRip.XviD-Emery.avi
Format : AVI
Format/Info : Audio Video Interleave
File size : 705 MiB
Duration : 1h 51mn
Overall bit rate : 885 Kbps
Writing application : VirtualDubMod 1.5.10.2 (build 2540/release)
Writing library : VirtualDubMod build 2540/release

Video
ID : 0
Format : MPEG-4 Visual
Format profile : AdvancedSimple@L5
Format settings, BVOP : Yes
Format settings, QPel : No
Format settings, GMC : No warppoints
Format settings, Matrix : Default (H.263)
Muxing mode : Packed bitstream
Codec ID : XVID
Codec ID/Hint : XviD
Duration : 1h 51mn
Bit rate : 748 Kbps
Width : 640 pixels
Height : 272 pixels
Display aspect ratio : 2.35:1
Frame rate : 23.976 fps
Resolution : 24 bits
Colorimetry : 4:2:0
Scan type : Progressive
Bits/(Pixel*Frame) : 0.179
Stream size : 596 MiB (84%)
Writing library : XviD 1.2.1 (UTC 2008-12-04)

Audio
ID : 1
Format : MPEG Audio
Format version : Version 1
Format profile : Layer 3
Format settings, Mode : Joint stereo / MS Stereo
Codec ID : 55
Codec ID/Hint : MP3
Duration : 1h 51mn
Bit rate mode : Constant
Bit rate : 128 Kbps
Channel(s) : 2 channels
Sampling rate : 48.0 KHz
Resolution : 16 bits
Stream size : 102 MiB (14%)
Alignment : Aligned on interleaves
Interleave, duration : 42 ms (1.00 video frame)
Interleave, preload duration : 504 ms

Sharing Widget


Download torrent
705.05 MB
seeders:5
leechers:1
Amelia 2009 DVDRip XviD-Emery

Trackers

tracker name Status checked seeders leechers downloads
udp://tracker.openbittorrent.com:80/announce
outdated 14 Feb 2014 - - -
udp://tracker.publicbt.com:80/announce
outdated 14 Feb 2014 - - -
http://tracker.openbittorrent.com/announce
outdated 10 Jun 2010 - - -
http://tracker.publicbt.com/announce
deleted 11 Mar 2013 - - -
µTorrent compatible trackers list

Locations

name
ThePirateBay
ExtraTorrent
TorrentPortal
Torrent hash: 4b7a7dec9e4934182b2d94490f64de6fa969a5ee

All Comments

audio
9/10
video
9/10
please, leave only comments related to that torrent
or sign-in
0
R0DRIG0242 • 07 August 2011, 21:12
torrent downloaded
Show comment
audio: 9video: 9
Perfect copy. Good biographic movie.
0
Captainwest603 • 07 August 2010, 08:51
torrent downloaded
Show comment
audio: 9video: 9
0
anonymous • 14 May 2010, 03:20 Show comment
great picture/sound thanks
0
anonymous • 14 May 2010, 03:20 Show comment
great picture/sound thanks
0
anonymous • 14 May 2010, 03:20 Show comment
great picture/sound thanks
0
Mos-c48 • 11 March 2010, 01:58
torrent downloaded
Show comment
Kind of skippy
0
kgirl11426 • 02 March 2010, 05:05
torrent downloaded
Show comment
great pic and sound thanks !
0
EvilMuppet323 • 28 February 2010, 00:33 Show comment
Right on....
0
anonymous • 11 February 2010, 22:01 Show comment
Great torrent im resigning from downloading and just watching them online at MovieCore. net saves time qualitys always perfect!

User Opinions

Captainwest603, Cookie29439, Rostie376, hue86, Mos-c48, kgirl11426, ajmsantos23, rjripper17, jslo520312, marymo1 ... And 2 more
Report a bug