Alvin and the Chipmunks Chipwrecked 2011 R5 REPACK XviD-26K

seeders: 6
leechers: 1
Added on Jan 20, 2012 by hail_alpha66085 in Movies > Highres Movies
Torrent verified. Downloaded 6,850 times.

Alvin and the Chipmunks Chipwrecked 2011 R5 REPACK XviD-26K (Size: 1.25 GB)
  Alvin and the Chipmunks Chipwrecked 2011 R5 REPACK XviD-26K.avi 1.22 GB
  Alvin and the Chipmunks Chipwrecked 2011 R5 REPACK XviD-26K.nfo 3.27 KB
  HDSceneRG.txt 115 bytes
  Torrent downloaded from Demonoid.me.txt 46 bytes
  att-networks.com.txt 39 bytes
  sample.avi 34.82 MB
  Sceneunderground.org.txt 77 bytes

Description

image

Alvin and the Chipmunks Chipwrecked 2011 R5 REPACK XviD-26K

Imdb:
http://www.imdb.com/title/tt1615918/

Plot:
Playing around while aboard a cruise ship, the Chipmunks and Chipettes accidentally go overboard and end up marooned in a tropical paradise. They discover their new turf is not as deserted as it seems.

Sources:
RUSSIAN VIDEO THNXS!!
CAM/RUSSIAN AUDIO!

Notes:
Like said before... here is the repack!! larger video size filled the audio with russian audio for the songs :P so enjoy!! also that oos for 3 mins fixed :)
my last encode for this until retail comes so enjoy!

Greetz:
Xtreme Encode|FYA|ILLUMANTI|CM8|RX|VISION|HDSCENE|NIGHTMAREZ|xTriLL|DTRG|CRYS|REMIXHD|BIDA|RX|REFILL|INSPiRAL|SIC|ZOMBIESZ|HOPE
To all the people who have helped me :P you know who you are

Anything to offer email us @: 26k@hushmail.me

Video
ID : 0
Format : MPEG-4 Visual
Format profile : Advanced Simple@L5
Format settings, BVOP : 1
Format settings, QPel : No
Format settings, GMC : No warppoints
Format settings, Matrix : Custom
Codec ID : XVID
Codec ID/Hint : XviD
Duration : 1h 23mn
Bit rate : 1 953 Kbps
Width : 720 pixels
Height : 400 pixels
Display aspect ratio : 16:9
Frame rate : 25.000 fps
Color space : YUV
Chroma subsampling : 4:2:0
Bit depth : 8 bits
Scan type : Progressive
Compression mode : Lossy
Bits/(Pixel*Frame) : 0.271
Stream size : 1.14 GiB (94%)
Writing library : XviD 64

Audio
ID : 1
Format : MPEG Audio
Format version : Version 1
Format profile : Layer 3
Codec ID : 50
Duration : 1h 23mn
Bit rate mode : Constant
Bit rate : 128 Kbps
Channel(s) : 2 channels
Sampling rate : 44.1 KHz
Compression mode : Lossy
Stream size : 76.6 MiB (6%)
Alignment : Split accross interleaves
Interleave, duration : 16345 ms (408.63 video frames)


Screens:
image
image
image
image

image
Thank you smallz for banner!

Sharing Widget


Download torrent
1.25 GB
seeders:6
leechers:1
Alvin and the Chipmunks Chipwrecked 2011 R5 REPACK XviD-26K

Trackers

tracker name Status checked seeders leechers downloads
http://tracker.torrentbay.to:6969/announce
outdated 02 Dec 2012 - - -
http://inferno.demonoid.me:3414/announce
outdated 18 Nov 2012 - - -
http://secure.pow7.com/announce
outdated 09 May 2012 - - -
udp://tracker.1337x.org:80/announce
outdated 20 Jan 2012 - - -
http://announce.torrentsmd.com:6969/announce
outdated 20 Jan 2012 - - -
http://cpleft.com:2710/announce
outdated 20 Jan 2012 - - -
udp://tracker.publicbt.com:80/announce
outdated 20 Jan 2012 - - -
udp://tracker.openbittorrent.com:80/announce
outdated 20 Jan 2012 - - -
http://tracker.openbittorrent.com/announce
outdated 20 Jan 2012 - - -
http://tracker.ex.ua/announce
outdated 20 Jan 2012 - - -
http://exodus.desync.com:6969/announce
blocked 19 Aug 2012 - - -
http://fr33dom.h33t.com:3310/announce
deleted 17 May 2013 - - -
http://tracker.publicbt.com/announce
deleted 11 Mar 2013 - - -
http://tracker.novalayer.org:6969/announce
pending 20 Jan 2012 0 0 0
µTorrent compatible trackers list

Locations

name
KickassTorrents
ThePirateBay
Limetorrents
Torrent hash: FF4581A9A9D7AE63B523210EB2E23D7AC81CCAC2

All Comments

audio
6/10
video
8/10
please, leave only comments related to that torrent
or sign-in
0
crizybaby6979 • 09 March 2012, 02:19
torrent downloaded
Show comment
audio: 8video: 10
awesome copy, my kids new favourite. Thanx for that
0
egybear126 • 01 March 2012, 10:28
torrent downloaded
Show comment
audio: 9video: 9
Wonderful copy. Go ahead and download. Thanks a lot uploader.
0
honey318i412 • 17 February 2012, 15:40
torrent downloaded
Show comment
audio: 7video: 5
very jumpey
0
FortyDubz81 • 17 February 2012, 02:08
torrent downloaded
Show comment
WIll wait for DVD
0
Shurupebus105 • 12 February 2012, 11:19
torrent downloaded
Show comment
thanks
0
dat-rican6249 • 08 February 2012, 20:47
torrent downloaded
Show comment
audio: 8video: 10
My kids loved it ..thanks
0
madcomdawn23 • 03 February 2012, 05:09
torrent downloaded
Show comment
audio: 3video: 9
great picture, shame it turns spanish halfway through
0
anonymous • 27 January 2012, 22:36 Show comment
what about a gmc blueray player
0
pasha90073 • 27 January 2012, 14:45
torrent downloaded
Show comment
audio: 10video: 10
good movie!
Show More

User Opinions

pnfuploads1757, geecee831126, lemonpie1079, emogalie778, jell07181, egybear126, 阿彬104, pasha90073, acarrasco7667, dozer162 ... And 2 more
lover_lover611, honey318i412, boost007176
Report a bug