All the Presidents Men (1976) Hoffman + Redford (Opt.MULTISUBS)

seeders: 0
leechers: 0
Added on Nov 7, 2008 in Movies
Torrent verified. Downloaded 0 times.

Available in versions: 1080p720pHDRiPDVDDVDRip
All the Presidents Men (1976) Hoffman + Redford (Opt.MULTISUBS) (Size: 724.28 MB)
  AA-Sample
  Optional subtitles
  All the Presidents Men (1976) Hoffman + Redford (MULTISUBS)_Kuth.avi 692.23 MB
  Info about this release.txt 4.73 KB

Description

aka
All the President's Men (1976)

http://www.imdb.com/title/tt0074119/

With Dustin Hoffman and Robert Redford

Optional subtitles in separate idx/sub files:
Bulgarian, Danish, English, Finnish, German, Greek, Hebrew, Icelandic, Italian, Norwegian, Polish, Portuguese, Romanian, Spanish, Swedish.
(Sorry, Dutch friends, your language was not on the DVD.)

With subtitles, only a full DVD seems to remain here on PB of this classic about one of the most dramatic political intrigues in newer history, winning 4 Oscars. So I made this new rip with multisubs.

My new ripping procedure now produces decent quality for such a long film compressed into just 700 MiB. I enclose a sample for ye weak in faith.

Widescreen DVDrip XviD 2-pass 720x384, original mono sound AC3.
Burn tested, runs well in both my standalone DivX players.

Format/Info : Audio Video Interleave
File size : 692 MiB
Duration : 2h 12mn
Overal bit rate : 730 Kbps

Video
Format : MPEG-4 Visual
Format profile : Streaming Video@L1
Format settings, BVOP : Yes
Format settings, QPel : No
Format settings, GMC : No warppoints
Format settings, Matrix : Default
Muxing mode : Packet Bitstream
Codec ID : XVID
Codec ID/Hint : XviD
Duration : 2h 12mn
Bit rate : 592 Kbps
Width : 720 pixels
Height : 384 pixels
Display aspect ratio : 1.875
Frame rate : 25.000 fps
Resolution : 8 bits
Colorimetry : 4:2:0
Scan type : Progressive
Bits/(Pixel*Frame) : 0.086
Stream size : 562 MiB
Writing library : XviD 1.2.0.dev47 (UTC 2006-11-01)

Audio
Format : MPEG Audio
Format version : Version 1
Format profile : Layer 3
Codec ID : 55
Codec ID/Hint : MP3
Duration : 2h 12mn
Bit rate mode : Constant
Bit rate : 128 Kbps
Minimum bit rate : 128 Kbps
Channel(s) : 2 channels
Sampling rate : 48.0 KHz
Resolution : 16 bits
Stream size : 121 MiB
Writing library : LAME3.97
Encoding settings : CBR

Source: PAL native (note that PAL/NTSC will give no problems for avi files).

Sharing Widget


Download torrent
724.28 MB
seeders:0
leechers:0
All the Presidents Men (1976) Hoffman + Redford (Opt.MULTISUBS)

Trackers

tracker name Status checked seeders leechers downloads
http://tracker.openbittorrent.com/announce
outdated 03 May 2013 - - -
ĀµTorrent compatible trackers list

Locations

name
ThePirateBay
SumoTorrent
TorrentReactor
Mininova
SumoTorrent
ExtraTorrent
Torrent hash: e645cf54cc56e35bbba17994fcd14bba6f74f59e

All Comments

audio
9/10
video
9/10
please, leave only comments related to that torrent
or sign-in
0
anonymous • 22 March 2014, 14:44 Show comment
seed..........
0
lbi20101057 • 04 November 2013, 21:31
torrent downloaded
Show comment
audio: 8video: 8
0
shakypk1660 • 28 December 2012, 03:09
torrent downloaded
Show comment
audio: 10video: 10
perfect audio and video
0
Dr.Strangelove2305 • 18 March 2011, 19:45
torrent downloaded
Show comment
Despite the fact that this torrent is 2.5 years old and it is still being seeded.
And why not? It is a classic movie !
Thanks to uploader and seeders !
0
Dr.Strangelove2305 • 18 March 2011, 19:45
torrent downloaded
Show comment
Despite the fact that this torrent is 2.5 years old and it is still being seeded.
And why not? It is a classic movie !
Thanks to uploader and seeders !

User Opinions

shapaa8002, Dr.Strangelove2305, OzzyMozzy1127, noggle1007, JeepBanshee230, lulyster120, Munxarman55, snav31, syssup10, drake377610 ... And 3 more
lbi20101057
Report a bug