Advertising (remove)

Alison Tyler - Big Wet Asses 22

seeders: 1
leechers: 8
Added on Jan 30, 2013 by ponklay6951 in XXX > Video
Torrent verified. Downloaded 8 times.

Alison Tyler - Big Wet Asses 22 (Size: 295.34 MB)
  Alison_Tyler_Big_Wet_Asses_22.mp4 295.34 MB
Advertising (remove)

Description

Screens:
http://imgchili.com/show/249...255_alison_tyler_big_wet.jpg
Alison_Tyler_Big_Wet_Asses_22.mp4
Format : MPEG-4
Format profile : Base Media
Codec ID : isom
File size : 295 MiB
Duration : 29mn 48s
Overall bit rate mode : Variable
Overall bit rate : 1 385 Kbps
Encoded date : UTC 2013-01-16 17:47:55
Tagged date : UTC 2013-01-16 17:47:55

Video
ID : 1
Format : AVC
Format/Info : Advanced Video Codec
Format profile : High@L4.1
Format settings, CABAC : Yes
Format settings, ReFrames : 5 frames
Codec ID : avc1
Codec ID/Info : Advanced Video Coding
Duration : 29mn 48s
Bit rate : 1 317 Kbps
Width : 854 pixels
Height : 480 pixels
Display aspect ratio : 16:9
Frame rate mode : Constant
Frame rate : 23.976 fps
Color space : YUV
Chroma subsampling : 4:2:0
Bit depth : 8 bits
Scan type : Progressive
Bits/(Pixel*Frame) : 0.134
Stream size : 281 MiB (95%)
Tagged date : UTC 2013-01-16 17:48:54

Audio
ID : 2
Format : AAC
Format/Info : Advanced Audio Codec
Format profile : LC
Codec ID : 40
Duration : 29mn 48s
Bit rate mode : Variable
Bit rate : 64.2 Kbps
Channel(s) : 2 channels
Channel positions : Front: L R
Sampling rate : 48.0 KHz
Compression mode : Lossy
Stream size : 13.7 MiB (5%)
Tagged date : UTC 2013-01-16 17:48:54

Related Torrents

torrent name size files age seed leech

Sharing Widget


Download torrent
295.34 MB
seeders:1
leechers:8
Alison Tyler - Big Wet Asses 22

Trackers

tracker name Status checked seeders leechers downloads
udp://9.rarbg.com:2710/announce
outdated 25 Mar 2015 - - -
udp://open.demonii.com:1337/announce
outdated 25 Mar 2015 - - -
http://tracker.ex.ua/announce
outdated 25 Mar 2015 - - -
udp://tracker.publicbt.com:80/announce
outdated 25 Mar 2015 - - -
udp://tracker.istole.it:80/announce
outdated 25 Mar 2015 - - -
udp://tracker.openbittorrent.com:80/announce
outdated 25 Mar 2015 - - -
udp://fr33dom.h33t.com:3310/announce
deleted 25 Mar 2015 - - -
http://www.h33t.com:3310/announce
deleted 25 Mar 2015 - - -
http://tracker.coppersurfer.tk:6969/announce
deleted 25 Mar 2015 - - -
udp://ipv4.tracker.harry.lu:80/announce
pending 25 Mar 2015 0 0 0
ĀµTorrent compatible trackers list

Locations

name
KickassTorrents
Torrent hash: 9ABBA5FEE9D8BC1718A8D15EC2684AC3B59C73DD

All Comments

audio
0/10
video
0/10
please, leave only comments related to that torrent
or sign-in

User Opinions

Vintren3283, marz282677, LordSpike795, jHosH633, tico1971626, tranquilizer287, Phiction116
Report a bug