Adanali 24. Bolum

seeders: 0
leechers: 1
Added on May 9, 2009 in TV
Downloaded 0 times.

Adanali 24. Bolum (Size: 356.32 MB)
  Adanali.24.Bolum.divx 355.32 MB
  info.txt 1.95 KB
  Thumbs.png 1 MB

Description

General
Complete name : Adanali.24.Bolum.divx
Format : DivX
Format/Info : Hack of AVI
File size : 355 MiB
Duration : 1h 39mn
Overall bit rate : 499 Kbps

Video
Format : MPEG-4 Visual
Format settings, BVOP : Yes
Format settings, QPel : No
Format settings, GMC : No warppoints
Format settings, Matrix : Default
Muxing mode : Packed bitstream
Codec ID : DX50
Codec ID/Hint : DivX 5
Duration : 1h 39mn
Bit rate : 433 Kbps
Width : 512 pixels
Height : 384 pixels
Display aspect ratio : 4/3
Frame rate : 25.000 fps
Resolution : 24 bits
Colorimetry : 4:2:0
Scan type : Progressive
Bits/(Pixel*Frame) : 0.088
Stream size : 309 MiB (87%)
Title : Video
Writing library : DivX 2151

Audio
Format : MPEG Audio
Format version : Version 1
Format profile : Layer 3
Codec ID : 55
Codec ID/Hint : MP3
Duration : 1h 39mn
Bit rate mode : Constant
Bit rate : 56.0 Kbps
Channel(s) : 1 channel
Sampling rate : 48.0 KHz
Resolution : 16 bits
Stream size : 39.9 MiB (11%)
Alignment : Split accross interleaves
Interleave, duration : 40 ms (1.00 video frame)
Interleave, preload duration : 500 ms
Title : Audio

Related Torrents

torrent name size files age seed leech

Sharing Widget


Download torrent
356.32 MB
seeders:0
leechers:1
Adanali 24. Bolum

Trackers

tracker name Status checked seeders leechers downloads
http://tracker.ccc.de/announce
outdated 22 Sep 2010 - - -
http://tracker.openbittorrent.com/announce
outdated 02 May 2010 - - -
http://www.torrentsnipe.info:2701/announce
error 09 May 2009 - - -
µTorrent compatible trackers list

Locations

name
ExtraTorrent
Torrent hash: 8e37233f296a12eb6e7d7e96477032d56f309962

All Comments

audio
0/10
video
0/10
please, leave only comments related to that torrent
or sign-in
Report a bug