ABCD – Any Body Can Dance - Camrip - 1CDRip - Xvid

seeders: 2
leechers: 5
Added on Feb 10, 2013 by LegitTorrents2185 in Movies > Bollywood
Torrent verified. Downloaded 10 times.

Available in versions: 720pHDRiPDVDRipScreenerTelecineCam
ABCD – Any Body Can Dance - Camrip - 1CDRip - Xvid (Size: 694.48 MB)
  ABCD – Any Body Can Dance - Camrip - 1CDRip - Xvid.avi 694.48 MB
  info.txt 2.22 KB

Description

General
Complete name : ABCD – Any Body Can Dance - Camrip - 1CDRip - Xvid.avi
Format : AVI
Format/Info : Audio Video Interleave
File size : 694 MiB
Duration : 2h 12mn
Overall bit rate : 733 Kbps
Writing application : VirtualDubMod 1.5.10.2 (build 2540/release)
Writing library : VirtualDubMod build 2540/release

Video
ID : 0
Format : MPEG-4 Visual
Format profile : Advanced Simple@L5
Format settings, BVOP : 1
Format settings, QPel : No
Format settings, GMC : No warppoints
Format settings, Matrix : Custom
Codec ID : XVID
Codec ID/Hint : XviD
Duration : 2h 12mn
Bit rate : 643 Kbps
Width : 608 pixels
Height : 256 pixels
Display aspect ratio : 2.40:1
Frame rate : 25.000 fps
Color space : YUV
Chroma subsampling : 4:2:0
Bit depth : 8 bits
Scan type : Progressive
Compression mode : Lossy
Bits/(Pixel*Frame) : 0.165
Stream size : 609 MiB (88%)
Writing library : XviD 1.2.1 (UTC 2008-12-04)

Audio
ID : 1
Format : MPEG Audio
Format version : Version 1
Format profile : Layer 3
Mode : Joint stereo
Mode extension : MS Stereo
Codec ID : 55
Codec ID/Hint : MP3
Duration : 2h 12mn
Bit rate mode : Constant
Bit rate : 80.0 Kbps
Channel(s) : 2 channels
Sampling rate : 32.0 KHz
Compression mode : Lossy
Stream size : 75.8 MiB (11%)
Alignment : Aligned on interleaves
Interleave, duration : 40 ms (1.00 video frame)
Interleave, preload duration : 504 ms

Related Torrents

torrent name size files age seed leech

Sharing Widget


Download torrent
694.48 MB
seeders:2
leechers:5
ABCD – Any Body Can Dance - Camrip - 1CDRip - Xvid

Trackers

tracker name Status checked seeders leechers downloads
udp://tracker.publicbt.com:80/announce
outdated 03 Mar 2013 - - -
udp://tracker.istole.it:80/announce
outdated 03 Mar 2013 - - -
udp://tracker.openbittorrent.com:80/announce
outdated 03 Mar 2013 - - -
udp://fr33domtracker.h33t.com:3310/announce
deleted 03 Mar 2013 - - -
udp://tracker.ccc.de:80/announce
deleted 03 Mar 2013 - - -
µTorrent compatible trackers list

Locations

name
KickassTorrents
Torrent hash: EB66D7EF3561BCF15F6FBF5A59FC72A555B2A507

All Comments

audio
4/10
video
5/10
please, leave only comments related to that torrent
or sign-in
0
anonymous • 22 February 2013, 16:38 Show comment
audio: 3video: 5
Bad Print ..i l wait for a better copy
0
anonymous • 20 February 2013, 09:00 Show comment
audio: 1video: 1
-1
anonymous • 11 February 2013, 09:49 Show comment
audio: 9video: 9
prints is gr8 like a scr
-1
ajsnapshot104 • 10 February 2013, 16:20 Show comment
hows the print

User Opinions

Report a bug