A Very Harold & Kumar 3D Christmas 2011 TS XviD - MiSTERE

seeders: 2
leechers: 1
Added on Nov 20, 2011 by hail_alpha66.37K in Movies > 3D Movies
Torrent verified. Downloaded 3 times.

Summary:
No summary yet
A Very Harold & Kumar 3D Christmas 2011 TS XviD - MiSTERE (Size: 1.24 GB)
  A Very Harold & Kumar 3D Christmas 2011 TS XviD - MiSTERE.nfo 2.53 KB
  A Very Harold & Kumar 3D Christmas 2011 TS XviD - MiSTERE.avi 1.23 GB
  HDSceneRG.txt 115 bytes
  Torrent downloaded from Demonoid.me.txt 46 bytes
  Torrent downloaded from Suprnova.me.txt 42 bytes
  att-networks.com.txt 39 bytes
  sample.avi 13.27 MB
  Sceneunderground.org.txt 77 bytes

Description

image

A Very Harold & Kumar 3D Christmas 2011 TS XviD - MiSTERE

http://www.imdb.com/title/tt1268799/

Video
ID : 0
Format : MPEG-4 Visual
Format profile : Advanced Simple@L5
Format settings, BVOP : 2
Format settings, QPel : No
Format settings, GMC : No warppoints
Format settings, Matrix : Default (H.263)
Muxing mode : Packed bitstream
Codec ID : XVID
Codec ID/Hint : XviD
Duration : 1h 20mn
Bit rate : 2 041 Kbps
Width : 720 pixels
Height : 304 pixels
Display aspect ratio : 2.35:1
Frame rate : 24.000 fps
Color space : YUV
Chroma subsampling : 4:2:0
Bit depth : 8 bits
Scan type : Progressive
Compression mode : Lossy
Bits/(Pixel*Frame) : 0.389
Stream size : 1.15 GiB (94%)
Writing library : XviD 64

Audio
ID : 1
Format : MPEG Audio
Format version : Version 1
Format profile : Layer 3
Mode : Joint stereo
Mode extension : MS Stereo
Codec ID : 55
Codec ID/Hint : MP3
Duration : 1h 20mn
Bit rate mode : Constant
Bit rate : 128 Kbps
Channel(s) : 2 channels
Sampling rate : 44.1 KHz
Compression mode : Lossy
Stream size : 73.9 MiB (6%)
Alignment : Split accross interleaves
Interleave, duration : 42 ms (1.00 video frame)


Cropped Resized Sharpened and Tweaked RGB
Video is in 3D, but not noticeable very often
42 seconds missing in 2 areas, 21 seconds each
nothing important, but take it or leave it

Screens:
image
image
image
image
image
image

Related Torrents

torrent name size files age seed leech

Sharing Widget


Download torrent
1.24 GB
seeders:2
leechers:1
A Very Harold & Kumar 3D Christmas 2011 TS XviD - MiSTERE

Trackers

tracker name Status checked seeders leechers downloads
http://announce.torrentsmd.com:6969/announce
outdated 11 May 2014 - - -
http://inferno.demonoid.me:3411/announce
outdated 11 May 2014 - - -
udp://tracker.publicbt.com:80/announce
outdated 11 May 2014 - - -
udp://tracker.openbittorrent.com:80/announce
outdated 11 May 2014 - - -
http://tracker.torrentbay.to:6969/announce
outdated 02 Dec 2012 - - -
http://secure.pow7.com/announce
outdated 17 May 2012 - - -
udp://tracker.1337x.org:80/announce
outdated 17 May 2012 - - -
http://cpleft.com:2710/announce
outdated 17 May 2012 - - -
http://tracker.openbittorrent.com/announce
outdated 17 May 2012 - - -
http://exodus.desync.com:6969/announce
blocked 19 Aug 2012 - - -
http://exodus.desync.com/announce
blocked 18 Aug 2012 - - -
http://fr33dom.h33t.com:3310/announce
deleted 17 May 2013 - - -
http://tracker.publicbt.com/announce
deleted 11 Mar 2013 - - -
http://tracker.novalayer.org:6969/announce
pending 17 May 2012 1371 2390 1724
ĀµTorrent compatible trackers list

Locations

name
KickassTorrents
ExtraTorrent
Fenopy
Limetorrents
ThePirateBay
Torrent hash: f23ded999c9f51af2718a43bc8f8bb6f339bc423

All Comments

audio
7/10
video
6/10
please, leave only comments related to that torrent
or sign-in
0
YahSoNice194 • 03 October 2012, 00:11
torrent downloaded
Show comment
audio: 6video: 5
WARNING NOT 3D ITS A 3D RIP SO IT WONT BE 3D FOR ANYBODY WANTING IT IN 3D ALSO QUALITY IS NOT THAT GREAT
1
jnknschrstphr113 • 12 September 2012, 01:33
torrent downloaded
Show comment
audio: 3video: 3
What a complete WASTE of time downloading this, this is a cam copy of the 3d version of the movie in the cinema which means the 3D part doesn't work for us. Don't download this and waste you bandwidth
0
willychho72487 • 22 July 2012, 05:38
torrent downloaded
Show comment
audio: 7video: 7
0
anonymous • 20 July 2012, 11:00 Show comment
third class movie ....though some 3D effects are really coool
0
jnknschrstphr113 • 12 September 2012, 01:31
torrent downloaded
Show comment
the 3D doesnt work, its a crap cam copy of the 3d version of the movie in a cinema.
0
barwin1277 • 19 July 2012, 00:39
torrent downloaded
Show comment
audio: 5video: 5
0
elilovemyra165 • 12 July 2012, 18:54
torrent downloaded
Show comment
audio: 10video: 10
0
Adam.Supreme1050 • 26 June 2012, 18:26
torrent downloaded
Show comment
audio: 5video: 5
Show More

User Opinions

inn2pink2796, Saqib_Malik1362, JuggernautJoe910, shane_davis809, ozcorps631, lonelyboy20331, maxim.romanchuk123, angeldew79, Moviefather62, dfa198752 ... And 90 more
Adam.Supreme1050, lawrose205, 3lok157, dimisto1821154, ivram143, Andrew_Rider67, djbolo62, darkman406062, kashmeri56, J_Line37 ... And 2 more
Report a bug