A Good Day to Die Hard (2013) BrRip [1080p] pyro

seeders: 1
leechers: 2
Added on May 21, 2013 by Pyro078242 in Movies > Highres Movies
Torrent verified. Downloaded 1,350 times.

Cast: Bruce Willis and others
Summary:
John McClane travels to Russia to help out his seemingly wayward son, Jack, only to discover that Jack is a CIA operative working undercover, causing the father and son to team up against underworld forces.
Submitted by 5fingerdis46.71K
report summary
A Good Day to Die Hard (2013) BrRip [1080p] pyro (Size: 1.96 GB)
  A Good Day to Die Hard (2013) BrRip [1080p] pyro.mp4 1.96 GB
  ara.ass 133.39 KB
  ENG.ass 102.19 KB
  FAr.ass 139.45 KB
  MEDIA INFO.txt 2.45 KB
  Pyro.jpg 279.66 KB

Description

image


English
Arabic
Persian
Subtitles


Media Info

BrRip [720p] pyro.mp4
Format : MPEG-4
Format profile : Base Media
Codec ID : isom
File size : 1.96 GiB
Duration : 1h 38mn
Overall bit rate : 2 858 Kbps
Writing application : Lavf52.94.0

Video
ID : 1
Format : AVC
Format/Info : Advanced Video Codec
Format profile : Main@L4.0
Format settings, CABAC : Yes
Format settings, ReFrames : 2 frames
Codec ID : avc1
Codec ID/Info : Advanced Video Coding
Duration : 1h 38mn
Duration_FirstFrame : -125ms
Bit rate : 2 647 Kbps
Width : 1 920 pixels
Height : 1 080 pixels
Display aspect ratio : 16:9
Frame rate mode : Variable
Frame rate : 23.976 fps
Minimum frame rate : 5.994 fps
Maximum frame rate : 23.976 fps
Color space : YUV
Chroma subsampling : 4:2:0
Bit depth : 8 bits
Scan type : Progressive
Bits/(Pixel*Frame) : 0.053
Stream size : 1.78 GiB (91%)
Writing library : x264 core 112 r1834 a51816a

Audio
ID : 2
Format : MPEG Audio
Format version : Version 1
Format profile : Layer 3
Mode : Joint stereo
Codec ID : 6B
Duration : 1h 38mn
Bit rate mode : Constant
Bit rate : 256 Kbps
Channel(s) : 2 channels
Sampling rate : 48.0 KHz
Compression mode : Lossy
Stream size : 180 MiB (9%)
Writing library : LAME3.98.4



SCREES

image

image

image

Related Torrents

torrent name size files age seed leech

Sharing Widget


Download torrent
1.96 GB
seeders:1
leechers:2
A Good Day to Die Hard (2013) BrRip [1080p] pyro

Trackers

tracker name Status checked seeders leechers downloads
udp://9.rarbg.me:2710/announce
outdated 02 Sep 2013 - - -
http://tracker.torrentbay.to:6969/announce
outdated 02 Sep 2013 - - -
udp://tracker.istole.it:80/announce
outdated 02 Sep 2013 - - -
http://bt.rghost.net/announce
outdated 02 Sep 2013 - - -
udp://tracker.publicbt.com:80/announce
outdated 02 Sep 2013 - - -
udp://tracker.openbittorrent.com:80/announce
outdated 02 Sep 2013 - - -
udp://tracker.ccc.de:80/announce
deleted 02 Sep 2013 - - -
udp://fr33domtracker.h33t.com:3310/announce
deleted 02 Sep 2013 - - -
udp://ipv4.tracker.harry.lu:80/announce
pending 02 Sep 2013 1 2 10
http://coalgirls.wakku.to:3277/announce
pending 02 Sep 2013 0 0 0
µTorrent compatible trackers list

Locations

name
KickassTorrents
Torrent hash: E8C24FF89485B29A094D65EB97EDCB0B4E941F38

Uploader Comments

1
anonymous • 22 May 2013, 05:36
Is this the real BLU-RAY Please reply
0
Pyro078242 • 22 May 2013, 06:28
I ripped it from blu-ray, i got.
1
anonymous • 22 May 2013, 15:31
audio: 8video: 10
Audio why 2 channels..??..could you make it in 5.1ch...??
0
Pyro078242 • 22 May 2013, 19:00
I guess the format took it for. Maybe mkv is better but some of downloaders want mp4 files fir their ps3
1
anonymous • 23 May 2013, 11:49
PS3 ???
0
Pyro078242 • 23 May 2013, 12:27
PLAY STATION 3

All Comments

audio
9/10
video
9/10
please, leave only comments related to that torrent
or sign-in
0
SionisGrey5751 • 21 August 2014, 08:03
torrent downloaded
Show comment
audio: 9video: 9
Thanks...
1
Kevinersej2382 • 25 May 2013, 12:34
torrent downloaded
Show comment
audio: 10video: 10
Great movie, with great sound... And even subtitles... You my good Sir, deserves a medal!
1
flabber1231600 • 24 May 2013, 13:45
torrent downloaded
Show comment
audio: 9video: 9
It's Bruce Willis in Die Hard… that's álways a good download ;) (good quality too)
1
anonymous • 23 May 2013, 11:49 Show comment
PS3 ???
0
Pyro078242 • 23 May 2013, 12:27
Show comment
PLAY STATION 3
1
anonymous • 23 May 2013, 23:16 Show comment
DOES IT WORK ON PS3????????
0
Pyro078242 • 24 May 2013, 06:19
Show comment
according to the format , yes
0
anonymous • 25 May 2013, 00:42 Show comment
Any Civinia interuption??
1
King_Slender32.67K • 22 May 2013, 15:44
torrent downloaded
Show comment
audio: 9video: 10
Nice work!
1
anonymous • 22 May 2013, 15:31 Show comment
audio: 8video: 10
Audio why 2 channels..??..could you make it in 5.1ch...??
0
Pyro078242 • 22 May 2013, 19:00
Show comment
I guess the format took it for. Maybe mkv is better but some of downloaders want mp4 files fir their ps3
1
anonymous • 22 May 2013, 05:36 Show comment
Is this the real BLU-RAY Please reply
0
Pyro078242 • 22 May 2013, 06:28
Show comment
I ripped it from blu-ray, i got.
1
anonymous • 22 May 2013, 14:56 Show comment
so are the russian subtitles hardcoded?
0
Pyro078242 • 22 May 2013, 18:58
Show comment
Nope not any harcoded subs..

User Opinions

Report a bug